アットウィキロゴ

み む かゥ わ ナ イ ス ト ラ イ

アーティスト ぬぬぬぬぬぬぬぬぬぬぬぬぬぬぬぬぬぬぬぬぬぬぬぬぬぬぬぬぬぬぬぬぬぬぬぬぬぬぬぬぬぬぬぬぬぬぬぬぬぬぬぬぬぬぬぬぬぬぬぬぬぬぬ

BPM BASIC ADVANCED EXPERT MASTER Re:MASTER
126 3 6 11 13+ -

EXPERT MASTER Re:MASTER
譜面制作者 はっぴー ぴちネコ -

BASIC


ADVANCED


EXPERT

(126)
{2}1-4[4:1],{4},{8}8,8-5[4:1],
{2},{16},,,B3/B4f/E3,{4},
{2}1x-4[4:1],{4},{8}5,5bx,
{8},2bx/4bx,3bx/5bx,4bx/6bx,{2}5bhx[4:1]/7bhx[4:1],

{8}6,6,5,5,7,7,5,5,
{8}6,6,5,5,7,8,1,2,
{8}3,3,4,4,2,2,{4}4,
{4}1h[8:1]/3h[8:1],2h[8:1]/4h[8:1],35,E6,
{8}7,7,5,5,{4}6h[4:1],5,
{2}7-5[8:1],8-5[8:1],
{8}3,3,4,4,2,2,{4}4qq8[2:1],
{2},{4},1b,

{4}2h[8:1]/8h[8:1],2h[8:1]/8h[8:1],1h[8:1]/7h[8:1],1h[8:1]/7h[8:1],
{4}6h[8:1]/8h[8:1],6h[8:1]/8h[8:1],1h[8:1]/3h[8:1],1h[8:1]/3h[8:1],
{4}7h[8:1]/8h[8:1],7h[8:1]/8h[8:1],1h[8:1]/2h[8:1],{8}1x/2x,1x/2x,
{8}E3,E4,E5,E6,{4}E7,8b,

{8}1bx/7bx,2bx/6bx,3bx/5bx,6,7,8,{4}17,
{8}2bx/4bx,2bx/4bx,2bx/4bx,3,2,2,{4}35,
{8}2bx,4bx,{4}3bx<5[8:1],,1bx/7bx,
{4}1h[8:1]/7h[8:1],2h[2:1]/8-4[8:1],{2},
{8}1bx/7bx,2bx/6bx,3bx/5bx,6,7,8,{4}17,
{8}2bx/4bx,2bx/4bx,2bx/4bx,3,2,2,{4}35,
{8}2bx,2bx,4bx,4hbx[4:1],,1bx,{4}1bx,
{2}8-4[8:1]/2-6[8:1],{8}3x/7x,8,{4}8b,

{4}5h[4:1]/7h[4:1],{8},6h[4:1]/8h[4:1],{4},68,
{4}2h[4:1]/4h[4:1],{8},1h[4:1]/3h[4:1],{4},13,
{4}5h[4:1]/7h[4:1],{8},6h[4:1]/8h[4:1],{4},68,
{8}5,5,{4}46,{8}3x/7x,3x/7x,{4}3x/7x,
{4}2h[4:1]/4h[4:1],{8},1h[4:1]/3h[4:1],{4},13,
{4}5h[4:1]/7h[4:1],{8},6h[4:1]/8h[4:1],{4},68,
{4}2h[4:1]/4h[4:1],{8},1h[4:1]/3h[4:1],{4},2b/4b,
{8}3-1[8:1],3,{4},4b,2b/6b,

{4}4,{8}7,7,{4}5,{8}2,2,
{4}4,{8}7,7,{4}5,{8}2,2,
{8}4,5,6,6,4,3,{4}3b/5b,
{8}A6,E6,E5,E4,{4}A3,C,
{8}8,8,8,8,8,8,8,8,
{8}1,1,1,1,1,1,1,1,
{8}28,28,28,28,17,17,17,1w5[4:1]/7,
{2},{4},1b,

{8}8,8,7,7,5,5,{4}6b,
{8}8,8,7,7,5,5,{4}6b,
{8}1,1,2,2,4,4,{4}3b,
{8}2,2,4,4,{16}3bx,3bx,3bx,3bx,{4}3bx,
{8}6,4,5b,5,4,4,5b,5,
{8}4,3,5b,6,3,4,5b,4,
{8}5b,6,5b,4,5b,5b,5b,5b,
{8}A6,E6,E5,E4,{4}A3,Cf,

{8}1bx/7bx,1bx/7bx,1bx/7bx,{16}6,6,{8}5,78,{4}12,
{8}2bx/4bx,2bx/4bx,2bx/4bx,{16}3,3,{8}4,25,{4}25,
{8}2bx,4bx,3bx<5[8:1],,{4},1b/7b,
{8}28,28,{4}2h[2:1]/8-4[8:1],{2},
{8}1bx/7bx,2bx/6bx,3bx/5bx,{16}6,6,{8}5,78,{4}12,
{8}2bx/4bx,2bx/4bx,2bx/4bx,{16}3,3,{8}4,25,{4}25,
{8}2bx,2bx,4bx,4bhx[4:1],,1bx,{4}1bx,
{2}8-4b[8:1]/2-6b[8:1],{8}3x/7x,8,{4}8b,

{4}5h[8:1]/7h[8:1],{8}57,6h[8:1]/8h[8:1],,68,{4}56,
{4}2h[8:1]/4h[8:1],{8}24,1h[8:1]/3h[8:1],,13,{4}34,
{4}5h[8:1]/7h[8:1],{8}57,6h[8:1]/8h[8:1],,68,{4}56,
{8}35,35,46,46,3x/7x,3x/7x,{4}3x/7x,
{4}1h[8:1]/3h[8:1],{8}13,2h[8:1]/4h[8:1],,24,{4}12,
{4}6h[8:1]/8h[8:1],{8}68,5h[8:1]/7h[8:1],,57,{4}78,
{4}1h[8:1]/3h[8:1],{8}13,2h[8:1]/4h[8:1],,24,12,12,
{8}78,78,45,45,{4}3b/6b,E5,

{4}7<5[8:1],{8},2>4[8:1],{4},6,
{4}7-5[8:1],{8},2-4[8:1],{4},5,
{4}6-8[8:1],{8},3-1[8:1],{4},7b,
{8}3-1[8:1],3,{4},4b,E5f,

{16}7h[16:3],,,6h[16:3],,,5,,{8},45,{4}45,
{16}2h[16:3],,,3h[16:3],,,4,,{8},45,{4}45,
{16}6h[16:3],,,7h[16:3],,,8,,{8},18,{4}18,
{16}3h[16:3],,,2h[16:3],,,1,,{8},38,{4}38,

{2}6<1[4:1],3>8[4:1],
{8}7,7,5,6,2,2,{4}4,
{4}1h[8:1]/7h[8:1],2h[8:1]/8h[8:1],1h[8:1]/6h[8:1],3h[8:1]/8h[8:1],
{8}56,56,34,34,12,12,{4}8hx[512:2967],

(49.5)
{1}B6/B7/C,

(126)
{1},
{1},
{1},
{2}1>4[4:1],5<8[4:1],
{8}1,2,3,4,6,7,{4}8,
{1}B2/B3/B6/B7/Cf,
E

MASTER

(126)
{4}5h[2:1],E5,,{8}5/B4,5h[8:15],
{4},B5,{16}6,,,{64}6x,B6,C,B2,{4}A2f,
{4},2,,{8}2,3b/4b,
{8},A1/B1/D1/D2/E1/E2,A7/B7/D7/D8/E7/E8,A4/B4/D4/D5/E4/E5,{2}2xv4[16:1]*<7[16:1],

{4}6<8[16:1],5qq3[16:1],6<8[16:1],5qq3[16:1],
{4}6<8[16:1],{8}5,5,6,7,8b,3,
{4}3>1[16:1],4pp6[16:1],{8}3,2,{4}1hb[4:3],
{8}2,8,3,7,{4}5,{48}3x/E7,B6f,,,{12},,
{8}28,{16}7,7,8,7,1,8,1,1h[16:3],,,{4}6pp5b[4:1],
{4}6,4qq5b[4:1],4,8b,
{8}25,{16}3,3,4,2,4,2,3,3h[16:3],,1,{8}1,24,
{8}35,46,57,68,{4}1/7-3[16:1],3b/7b,

{4}4h[4:1]/6,5h[4:1],{8}2h[8:1],3h[8:1],2h[8:1],4,
{4}5h[4:1],4h[4:1],{8}7h[8:1],6h[8:1],7h[8:1],5,
{8}6,6h[8:1],5,5h[8:1],4,4h[8:1],3bq4<2[2:1],5b/6b,
{2},{4}Ch[4:1],1b,

{48}8x,D8,A7,D7,,,8x,E8,B7,B6,,,8x,B8,C,B4,,,{16}2,2h[8:1],,1,1h[8:1],,{8}3-5[16:1],3-7[16:1],
{4}3-1[16:1],{8},{16}6,6h[8:1],,7,7h[8:1],,{8}8,8,
{64}7x,6,5,,{16},{64}8x,7,6,,{16},{64}1x,8,7,,{16},{8}2,6>3[16:1]/3<6[16:1],18,{4}A3/A6,
{16}6x,4,6,4,5p1[16:5],3,5,3,{2}5h[16:5],
{48}1x/8x,D8,A7,D7,,,8x,E8,B7,B6,,,8x,B8,C,B4,,,{16}2,2h[8:1],,1,1h[8:1],,{8}3-5[16:1],3-7[16:1],
{4}3-1[16:1],{8},{16}6,6h[8:1],,7,7h[8:1],,{8}8,8,
{64}7x,6,5,,{16},{64}8x,7,6,,{16},{64}1x,8,7,,{16},{8}3,{4}5>1b[16:1]/6h[4:1],5b,
{8}34,56,{16}4>2[16:1]/5<7[16:1],45,{8}45,{48}D6,D4,,,{12},,{4}Cf,

{8}8p2[4:1],1,2q8[4:1],1,8p2[4:1],1,{4}2b,
{8}4p6[4:1],5,6q4[4:1],5,4p6[4:1],5,{4}6b,
{8}8p2[4:1],1,2q8[4:1],1,8,1,2b,3h[8:1],
{8}1h[8:1],8h[8:1],6h[8:1],3,E4/E6,A3/A6,{4}D3/D7,
{8}1q7[4:1],8,7p1[4:1],8,1q7[4:1],8,{4}7b,
{8}5q3[4:1],4,3p5[4:1],4,5q3[4:1],4,{4}3b,
{8}1q7[4:1],8,7p1[4:1],8,{2}1w5b[16:1],
{8}A7/B7/D8/E7/E8,A3/A4/B3/D4/E4,4x-8V62[4:1],6hx[8:1],{4}4bx,A2f,

{4}5h[4:1],6h[4:1],4h[4:1],3h[4:1],
{8}5,6,7h[8:1],5,4,3,2h[8:1],4,
{4}4h[8:1]/5h[8:1],{8}36,27,{4}1-4b[16:1]/8-5b[16:1],{48}1bx/8bx,A4/A5/D4/D5f/D6/E4/E5/E6,,,{12},,
{2},{4},D5,
{8}6hx[16:1]/E5,6hx[16:1],6hx[16:1]/A4,6hx[16:1]/D4,6hx[16:1]/A4,6hx[16:1]/D4,6hx[16:1]/A4,6hx[16:1]/D4,
{8}3hx[16:1]/E5,3hx[16:1],3hx[16:1]/A5,3hx[16:1]/D6,3hx[16:1]/A5,3hx[16:1]/D6,
3hx[16:1]/A5,3hx[16:1]/D6,
{16}5hx[16:1],4hx[16:1],6hx[16:1],3hx[16:1],5hx[16:1],4hx[16:1],6hx[16:1],3hx[16:1],5hx[16:1],4hx[16:1],6hx[16:1],3hx[16:1],5hx[16:1],4hx[16:1],6xp2>5[8:3],3x,
{2},{4},{8}2b/7b,6h[8:1],

{8}5h[8:1],6h[8:1],5h[8:1],7h[8:1],5h[8:1],7h[8:1],6bx,7h[8:1],
{8}5h[8:1],6h[8:1],5h[8:1],6h[8:1],5h[8:1],7h[8:1],6bx,4h[8:1],
{8}5h[8:1],3h[8:1],4h[8:1],2h[8:1],4h[8:1],2h[8:1],{4}3bx,
{2}2h[8:3]/4h[8:3],{32}3bx,3bx,3bx,3bx,3bx,3bx,3bx,3bx,3bx,3bx,3bx,3bx,3bx,3bx,3bx,3bx,
{8}3x,4,5/6b,4,3,4,5/6b,4,
{8}3,5,4/6b,5,3,5,4/6b,5,
{8}6b/7,5,4/6b,5,6b/7,5/6b,{16}6b,6b,6b,6b,
{2},{4}6v3b[16:1]/5qq3b[16:1],{48}5b/6b,Cf,,,{12},,

{48}8x,D8,D7,D6,,,8x,E8,B6,E5,,,{64}8x,B8,C,B4,{16}A4,2,2h[8:1],,1,3,1,{8}3-5[16:1],3-7[16:1],
{48}3x-1[16:1],A5f,,,,,3x,A7f,,,,,3x,A1f,,,,,{16}6,6h[8:1],,8,7,1,{8}8,18,
{64}7bx,6b,5hb[32:3],,{16},{64}8bx,7b,6hb[32:3],,{16},{64}1bx,8b,7hb[32:3],,{16},{8}2,6>3b[16:1]/3<6b[16:1],1b/8b,{4}A3/A6,
{16}6x,5,7,4,5p1[16:5],2,4,3,{2}5h[16:5],
{48}1x/8x,D8,D7,D6,,,8x,E8,B6,E5,,,{64}8x,B8,C,B4,{16}A4,2,2h[8:1],,1,3,1,{8}3-5[16:1],3-7[16:1],
{48}3x-1[16:1],A5f,,,,,3x,A7f,,,,,3x,A1f,,,,,{16}6,6h[8:1],,8,7,1,{8}8,18,
{64}7bx,6b,5hb[32:3],,{16},{64}8bx,7b,6hb[32:3],,{16},{64}1bx,8b,7hb[32:3],,{16},{8}3,{4}5>1b[16:1]/6h[4:1],5b,
{8}23,67,{16}4>2[16:1]/5<7[16:1],45,{8}45,{48}D6,D4,,,{12},,{4}Cf,

{8}7p2[4:1],1,2q8[4:1],1,8p1[4:1],1,{4}2b,
{8}4q1[4:1],8,1p3[4:1],2,3q2[4:1],2,{4}1b,
{8}7p2[4:1],1,2q8[4:1],1,8,1,2b,3h[16:1],
{8}2h[16:1]/4h[16:1],1h[16:1]/8h[16:1],5h[16:1]/7h[16:1],36,A3/A6/D3/D7/E4/E6,A3/A6/D3/D7/E4/E6,{4}A3/A6/D3/D7/E4/E6,
{8}2q7[4:1],8,7p1[4:1],8,1q8[4:1],8,{4}7b,
{8}5p8[4:1],1,8q6[4:1],7,6p7[4:1],7,{4}6b,
{8}2q7[4:1],8,7p1[4:1],8,1,8,{4}7hb[4:1],
{8}1,23,45,67,{4}8b/Ch[4:1],6q4p6[2:1],

{4}5h[4:1],{8},8h[4:1],{4},3xp5q3[2:1]/5,
{4}4h[4:1],{8},1h[4:1],{4},4/6xq3p6[2:1],
{4}5h[4:1],{8},8h[4:1],{4},1b/4b,
{8}A5/A8/B5/B6/B7/B8/D6/D8,A1/A2/A3/A4/B2/B3/D2/D4,4x-8V62b[4:1],6hx[8:1],{4}4x,A2f,

{16}6h[8:1],,5,7h[8:1],,6,8h[8:1],,{8}7,28,13,24,
{16}3h[8:1],,4,2h[8:1],,3,1h[8:1],,{8}2,17,68,57,
{16}6h[8:1],,5,7h[8:1],,6,8h[8:1],,{8}7,28,13,24,
{16}3h[8:1],,,2h[8:1]/8h[8:1],,,1qq7[16:1]*pp3[16:1],,{8}A2/A8,1x,{4},

{12}3b-1[16:1]/5b,4,4,{4}3bx/5bx,{12}4b/6b-8[16:1],5,5,{4}4bx/6bx,
{16}2b,4,3,3,7b,5,6,6,3b,7,2,8,{4}1b-6[16:1]*<6b[16:1],
{4}1b-4[16:1]*>4b[16:1],1bp5b[16:1]*<5b[16:1],1bq5b[16:1]*>5b[16:1],1b,
{8}5x/6b,3b/4x,5x/7b,2b/4x,{16}17,17,17,17,8,8,{8}8,

(49.5)
{1}A3/A4/A5/B3/B4/B5/D3/D4/D5/E3/E4/E5,

(126)
{2},{4},2x>6[4:1],
{4}6<2[4:1],2>6[4:1],6<2[4:1],2>6[4:1],
{4}6<2[4:1],2>6[4:1],6<2[4:1],2>6[4:1],
{4}6<2[4:1],2,3,4,
{8}56,78,12,34,{16}56,7,8,1,6v5[16:1]/2v1[16:1],26,{8}2x/6x,
{48},B2/B3/B4/B5/E3/E5/Cf,
E

Re:MASTER


名前:
コメント:

タグ:

+ タグ編集
  • タグ:
最終更新:2026年01月11日 12:33