アットウィキロゴ

化けの花

アーティスト なきそ

BPM BASIC ADVANCED EXPERT MASTER Re:MASTER
180 4 7 11 13+ -

EXPERT MASTER Re:MASTER
譜面制作者 アマリリス サファ太 -

BASIC


ADVANCED


EXPERT

(180){4}28,17,{8},3x/4x,3x/4x,,{4}2xh[8:5]/5x,4,{8},4,4,,3,,35,,6,,46,,7h[8:5],,5,,,5,5,,6,,56,,3,,34,,2xh[8:5]/5x,,4,,,4,4,,3,,35,,6,,46,,7h[8:5],,5,,,5,5,,78,,18,,12,,3>6[2:1],,{1},
{4}7,7<4[4:1]/8,,,1,2>5[4:1],,,7,57,2,24,6,56,3,34,5,5/6<1[4:1],,,4,3>8[4:1],,,7,56,34,2,18,1>4[4:1]/8<5[4:1],,,4/5h[8:5],,{8},4,4,5h[4:1],,3,4,5,{1}6xqq4[8:5]*v4[8:5],{8},,,3,3,5,5,3h[4:1]/5h[4:1],,,6,6,4,,,6,5,6h[4:1],,4,5,6,4,3,,1,1,4,{4}4h[4:5],,{8},2,{4}2v5[4:1],,,2x/7x,1x/8x,
2b-5[8:1]/1b-4[8:1],,8-5[8:1]/7-4[8:1],,12,{8}34,34,,6,{4}6h[4:1],8-4[8:1],,7-4[8:1],,3,{8}12,12,,34,34,,{4}5h[4:1],6>3[4:1],,,7h[4:1],8<5[4:1],,,7,45,34,2,1,{8}78,78,,16,16,,{4}8-5[8:1]/7-4[8:1],,2-5[8:1]/1-4[8:1],,78,{8}56,56,,3,{4}3h[4:1],1-5[8:1],,2-5[8:1],,6,{8}78,78,,16,{4}16,3/4q8[4:1]*p8[4:1],,,{8}2b/6b,2b/6bh[8:7],,{4},{8}A3,D4,A4,{4}D5,
56,56,{8}7,7,78,,2,2,12,,34,,25,,34,,34,,2,2,12,,7,7,78,,56,,47,,5/6h[4:1],,8,,1,,28,,{1}1/2q4[2:1],{4}3h[4:1]/4,1,18,27,{1}Ch[1:1],D5/E5,{4}7,7<4[4:1]/8,,,1,2-5[4:1],,,4h[8:1]/6h[16:3],,3h[16:3]/4h[8:1],,12,{8}3xh[32:1],5xh[32:1],4xh[32:1],6xh[32:1],4bx/6bx,,7h[4:1],,8,8h[4:1],,6,6,,78,,E8,,B6,,E5,,2h[4:1],,1,1h[4:1],,3,3,,12,,E2,,B3,,E5,,6h[4:1],,5,5h[4:1],,7,7,,56,,E6,,B7,,E1,,3h[4:1],,4,4h[4:1],,2,2,,E5/D3,,C/A2,,D1/A1,,,,{1}1>2-5[2:1]/6h[4:9],5x<7-2[2:1],{4}2xh[4:1],,26,1b/5b,26,5bq1[4:1]/1bq5[4:1],,,
7h[4:1],6q2[4:1],,,5h[4:1],6p2[4:1],,,7,78,56,34,12,{8}24,24,,57,{4}57,6-1[8:1]/5-8[8:1],,4-1[8:1]/3-8[8:1],,56,{8}34,34,,2,{4}2h[4:1],4-8[8:1],,3-8[8:1],,7,{8}56,56,,47,{4}47,8-5[4:1]/2-7[4:1],,,58,1-4[4:1]/5-8[4:1],,,8>4[4:1]*<4[4:1],,,35,{8}17,17,{4},E2/E7,A4/E4/E5,D3/A2/D6/A6,{8}
4x,,6,6,5,,7,7,8,,2,2,1,1,3,,34,,2,2,1,,7,7,8,,6,6,5,5,7-3[8:1],,3x,,2,2,1,,7,7,8,8,6,6,5,5,{4}56,8-4[8:1]/7-3[8:1],,2-6[8:1]/1-5[8:1],,78,56,4-8b[8:1]/3-7b[8:1],,{1},2b/6b,E

MASTER

(180){8}3h[4:1],4,5,6h[4:1],5,4,35,35,2b/6b,,E4,E5,,7,7,8,6h[4:1],,E6,E5,,2,2,1,3h[4:1],,E4,E5,,5,5,46,4/6-4[8:1],,3,2h[4:1],,1,8h[4:1],,Cf,,1,1h[4:1],,3,4,5,2-4[8:1],,8,8h[4:1],,6,5,4,7-3[8:1],,1,1h[4:1],,4,4<8<4[1:1],,2,,3,3,,2,2,,{1}Ch[2:1],
{4}1h[2:1]/E8,E7,E6,{8}15,1,2h[2:1]/E7,,E6,,E5,,2,2,3h[2:1]/5,,5,,4,,3V17[2:1]/4,4,4,,5,,6,,6,6,5h[4:1]/7,,7,,5h[4:1]/8,,8,8,7/E6,,7/C,,8/E2,,7,6,5/8h[4:1],,6h[4:1],,5h[4:1],,7,,8,7,6-8[8:1],5,4,,35,,1q5[8:1]*p5[8:1]/7,,C,,7,8,1,2-5[8:1]/4,,5,6,7,{6}8h[1:0],8h[1:0],8h[1:0],{8}1-7b[8:1]/7,,,5bxh[2:1],,,,4,3,4<7[8:1],2,1h[8:3],,,E1/B1,,E5/B4,,57,6,6,5h[4:1]/7,,8,7,6,1,2-4v6[8:3]/4,,5,5,,7q3[8:1]*p3[8:1],,C,,,1,8,7/Ch[8:5],,,8p2[4:1],,,,1-5[8:1],,1b/6b,,2/8-4[8:1],3,4,,2-6[8:1]/5,6,7>1-5b[4:1],,4,4,,2,2/6>3[8:1],,8pp2[4:1],,5,6,7qq5[4:1],,4,3,2,1v3[8:1]*v7[8:1],8,,,5,5-3[8:1]*-1[8:1],,5,,28,1,7/8V24-6[8:5],,5,6,7,8,1,2h[4:1],,4-8[8:1]*-7[8:1],,4,,1-6[8:1],2,3,4-1[8:1],5,6,7,8-3[8:1],3>8[8:1],8<5[8:1],E5f,,2x,2/4-1[8:1],,1b/4b,,2/8-4[8:1],3,4,,2-6[8:1]/5,6,7>1-5b[4:1],,4,4,,2,2/6>3[8:1],,8pp2[4:1],,5,6,7qq5[4:1],,4,3,2,1xv4[8:1]*qq7[8:1],8,,,3,3h[4:1],,4,4,35,2V46[4:1]/6,,1,8,7h[8:5],{2},{4},7v4[8:1]/8q4[8:1],
7b/8b,35,{16}2h[16:3],,,4,3-8[8:1],,25,,6h[2:1],,,,1h[4:1],,,,{32}D2/D6,A2/A5,D3/D5,A3/A4,{8}D4,6,6,5-2[8:1]/7,,8-3[8:1],,1-6[8:1],,5,,57,{16},6,5,,34,,25,,{16}1,6,1-5[8:1],6,1,6,{4}1b,46,{16}7h[16:3],,,5,6-1[8:1],,47,,{4}3h[2:1],8h[4:1],{32}D4/D8,A4/A7,D5/D7,A5/A6,{8}D6,3,3,2/4-7[8:1],,1-6[8:1],,8-3[8:1],,4,,24,{16},3,4,,56,,{8}4-6[8:1]/7-5[8:1],38,4>7[4:3]/7>4[4:3],,{1},{8}56,,7h[2:1],,E6/B5/B6,,8,8,78,,1/6h[2:1],,E7/B6/B7/Ch[2:1]f,,,,8b,,17,2,34,34,2,18,78,{16}6,8,{8}7,18,{16}2,1,3,,2,,18,,{8}7/8>3[8:1],,{6}5h[1:0],5h[1:0],5h[1:0],{8}4x/6x,35,3/5h[4:1],,{16}3,4,,5,4,,3,4,,,{8}28,2-8[8:1]/8,,{6}7h[1:0],7h[1:0],7h[1:0],{8}46,46,5/7h[4:1],,{16}5,6,,7,6,,5,6,,,{8}57,5>2[8:1]/6,,{6}8h[1:0],8h[1:0],8h[1:0],{8}1x/7x,28,2/8h[4:1],,{16}2,1,,8,1,,2,1,,,{8}38,3h[4:1]/8,,{6}4h[1:0],4h[1:0]/5h[1:0],5-2-8[4:1]/6h[1:0],{8},8,{1}6bxh[2:7],5>5[4:5],,{4}5h[4:1],,5-8[8:1],5b/7b,{8}12,1v4b[8:1]/2-5b[8:1],,1b/2b,,36,3>7[4:1]/6,,
7bV13b[4:1],,4,5,6-8[8:1],,3-5[8:1]/6,,3v6[8:1]*-8<7[8:1]/6,,,,,,47,3v8[8:1]/8p4[8:1],,3b/8b,,15,2>5[8:1]/6<1[8:1],,2pp5[8:3]/6pp1[8:3],,2x/6x,,Cf,,,8,8w4b[8:1],,8b,,2-8[8:1]b/6-3[8:1]b,3,,,1<6b[8:1]/5-3b[8:1],2,,,1,2/8v3<5[4:1],,2,1-6b[8:1],,17,,5-1[8:1]/7-5[8:1],,57,,24,35,46,5-2[8:1]/7-4[8:1],8,,,1,1-7[8:1],,6-2-4[4:1],,4>1[8:1]*<7[8:1],4,,,8,1,2<7[8:1],,4-1[8:1],,5,5,,7,6q3[4:1]/8,,3p6[4:1],,4,4w8b[8:1],,B4/C/B8,{4},,,45,
{16}3b/8b,,2,1,,1,,28,,13,,8,4,8,4,8,5x,,5,,5,6,5,6,4,5,4,5,3,4,3,,1b/8b,,7,5,,5,6,,1b/8b,,2,4,,4,3,,6b,8,7,8,7,,3b,1,2,1,3,,3h[16:1]/4h[16:1],,2h[16:1]/5h[16:1],,1b/6b,,7,8,,8,,17,,68,,1,5,1,5,1,4x,,4,,4,3,4,3,5,4,5,4,6,5,6,5,7b,,2,4,,4,3,,1b/6b,,7,5,,5,6,,3b,4,2,4,3,,6b,5,7,5,6,,{4}4/7-3[8:1],{1}2h[4:3],A6/A7/A8/B7/C/D6/D7/D8/D1/E6/E7/E8/E1,E

Re:MASTER


MASTER追加しました -- paru (2026-01-10 9:49:12)
420コンボ付近の2,3,1,,を2,1,3,,に修正しました -- paru (2026-01-10 20:44:52)
EXPERTも追加しました -- paru (2026-01-13 22:41:12)
名前:
コメント:

タグ:

+ タグ編集
  • タグ:
最終更新:2026年10月01日 19:15