アットウィキロゴ

タケモトピアノCMソング

アーティスト タケモトピアノCM

BPM BASIC ADVANCED EXPERT MASTER Re:MASTER
174 3 7 9 12+ -

EXPERT MASTER Re:MASTER
譜面制作者 はっぴー はっぴー -

BASIC


ADVANCED


EXPERT


MASTER

(174){4},,,,
(182),,,C,
(128){4},
(160){16}3x,3x,4x,,{8}2-5[8:1]/5,2/5,6<3[4:1],6,C,,8x,,{8}5>2[8:1]/6<1[8:1],,,,4<7[8:1]/3>8[8:1],,,,3/6,3/6,4-1[8:1]/5-8[8:1],,4x/5x,,1x/8x,,3x,7x,4x/6x,4x/6x,4x/6x,,1b/8b,,{8}4<7[8:1]/3>8[8:1],,,,5>2[8:1]/6<1[8:1],,,,3/7,2/6,3>1[8:1]/7<4[8:1],,,,2b/6b,,,,,,
(149)Ch[4:3],,,,,,B1/B8,,
(113),,,

(218){12}E6,B5,B4,{4}E4,,,
(165){8},,,
(186){4}E6/B5/B4/E4,,,
(123){8},3b,,7b,4b/6b,4b/6b,4b/6b,1b/8b,E7,B5,B4,E3,{16}E5,C,E1,,,,,,{4}Ch[2:1],7p2[4:1],,,{8},3b,,7b,4b/6b,4b/6b,4b/6b,1b/8b,E3,B4,B5,E7,{16}E5,C,E1,,,,,,,,1x,1x,{48}1x,2x,3x,4x,5x,6x,7x,8x,1x,2x,3x,4x,5x,6x,7x,8x,1x,2x,3x,4x,5x,6x,7x,8x,{4}1x/Cf,

(176){4},,
(200)Ch[4:3],,,
(149)B2/B3/B6/B7,
(128)1x/8x,
(160){16}E7,E6,E5,E4,E3,,,,{8}1>4[8:1]/8<5[8:1],2x/7x,1x/8x,,2x/7x,,1/5-8[8:1],1,3,3,8/4-1[8:1],8,6,6,2/5,3,4-1[8:1]/5-8[8:1],,4x/5x,,1x,,3h[4:2]/7,6,5,5,8b,,8b,,4>1[8:1]/7<5[8:1],,4x/7x,,8<5[8:1]/3>1[8:1],,8x/3x,,3/6,3/6,4-1[32:3]/5-7[32:3],,4x/5x,,E2/B2/B3/C/B7/E6/B5,,,,
(167),,(130){12}7,7,7<2[16:9],
(169){8}7h[8:11],,,,,,,,,,,

(109){4},
(100){32}3x,5x,3x,5x,3x,5x,3x,5x,4x,6x,4x,6x,
(154){8}4x,8b,(78){4},
(123){8}1/5,1/5,1/5<5[4:1]*>5[4:1],1>1[4:1]*<1[4:1]/5,{4},,{8}1x,2pp4[8:1]/7qq5[8:1],4>5[4:1]/5<4[4:1],,{4},,{16}3b,,,7b,4b/6b,,4b/6b,,4b/6b,,,,1b/8b,,,,{8}8/4,8/4,8/4>4[4:1]*<4[4:1],8<8[4:1]*>8[4:1]/4,{4},,{8}8x,7qq5[8:1]/2pp4[8:1],5<4[4:1]/4>5[4:1],,{4},,{16},,1x,1x,{32}1x,8x,1x,8x,1x,8x,1x,8x,1xq5[16:1],8x,1x,8x,1x,8x,1x,8x,1x,Cf,E

Re:MASTER


  • MASTER譜面のデータを追加しました。修正などありましたらよろしくお願いいたします。(BPMは暫定です) -- Sugar (2026-02-06 13:00:40)
名前:
コメント:

タグ:

+ タグ編集
  • タグ:
最終更新:2026年04月01日 22:08