| アーティスト |
サツキ feat.初音ミク・重音テト |
BASIC
(185){1},,
1,2,3,4,5,6,7,81,
7h[1:1]/8h[1:1],,6h[1:1]/5h[1:1],,4h[1:1]/3h[1:1],,1h[1:1]/2h[1:1],,
{2}1,1,2,,3,3,54,,5,5,6,,7,7,81,,
{1}B1,B8,B2,B7,B3,B6,Ch[1:1],,
{4}8b,8,8,,7,,7,,6,,6,,65,,,,
4,4,4,,3,,3,,2,,2,,12,,,,
1b,1,1,,2,,2,,3,,3,,54,,,,
5,5,5,,6,,6,,7,,7,,81,,,,
{2}8h[1:1]/1h[1:1],,,,
7,7,78,,6,6,54,,3,3,43,,2,2,81,,
{1}1-5[4:3],,8-4[4:3],,2-5[4:3],,7-4[4:3],,
1-6[4:3],,8-3[4:3],,2-6[4:3],,8bx,,
7h[1:1]/8h[1:1],,6h[1:1]/5h[1:1],,4h[1:1]/3h[1:1],,1h[1:1]/2h[1:1],,
{2}12,12,12,,43,43,43,,65,65,65,,78,78,78,,
8h[1:1],,,,{4}7b,7,7,,6,6,6,,
5,5,5,,4,4,4,,3,3,3,,2,2,12,,
1b,1,1,,2,2,2,,3,3,3,,4,4,54,,
5,5,5,,6,6,6,,7,7,7,,8,8,81,,
8h[1:1]/1h[1:1],,,,,,,,
8,8,8,,78,,78,,6,6,6,,54,,54,,
3,3,3,,43,,43,,2,2,2,,81,,81,,
7b/2b,
E
ADVANCED
(185){1},,
{4}5,5,5,,6,6,6,,7,7,7,,81,,81,,
1,1,1,,2,2,2,,3,3,3,,54,,54,,
3h[2:1],,4,,2h[2:1],,1,,7h[2:1],,8,,6h[2:1],,5,,
6h[2:1],,5,,7h[2:1],,8,,2h[2:1],,1,,3hx[2:1],,4,,
3,3,43,,2,2,12,,8,8,78,,65,65,65,,
6,6,65,,7,7,78,,1,1,12,,43,43,43,,
{1}3-6[2:1],7-4[2:1],2-5[2:1],6-1[2:1],
2-6[2:1],8-4[2:1],{2}3,43,54,,
{4}3bx,3,2,2,1,1,78,,6,6,7,7,8,8,12,,
2,2,3,3,4,4,65,,7,7,6,6,5,5,43,,
3bx,3,2,2,1,1,78,,6,6,7,7,8,8,12,,
2,2,3,3,4,4,65,,7,7,6,6,5,5,34,,
5^8[2:3]/4^1[2:3],,,,,,,,
8,8,7,7,6,6,5,5,4,4,3,3,2,2,81,,
1,1,2,2,3,3,4,4,5,5,6,6,7,7,81,,
{2}2h[2:1],1h[2:1],8h[2:1],7,7h[2:1],8h[2:1],1h[2:1],2,
3h[2:1],4h[2:1],5h[2:1],6,6h[2:1],5h[2:1],4h[2:1],3,
{4}3,3,4,,5,5,6,,6h[2:3]/5h[2:3],,,,,,,,
6,6,5,,4,4,3,,{2}2^5[4:3],,,,
B6/B5,,B7/B8,,B1/B2,,B4/B3,,
B7,B6,B5,B4,B3,B2,C,,
{4}7bx,7x,7x,7x/8x,6,6,6,65,4,4,4,43,12,12,12,,
2,2,2,12,3,3,3,43,5,5,5,65,78,78,78,,
8-5[4:3]/1-4[4:3],,,,,,5x/4x,,3,3,12,12,8,8,78,,
7,7,65,65,4,4,43,43,2,2,43,43,5,5,65,,
7,7,78,78,6,6,65,65,4,4,43,43,12,12,83,,
2,2,12,12,3,3,34,34,5,5,65,65,78,78,61,,
7qq4[4:5]/8pp3[4:5],,,,,,,,
2,3,4,5,6,7,81,,7,6,5,4,3,2,81,,
1,2,3,4,5,6,7,8,1,2,3,4,54,54,36,36,7b/2b,
E
EXPERT
(185){1},,
{4}3,3,82,82,6,6,71,71,
2h[4:1],4,6h[4:1],4,2h[4:1],4,5x/1x,,
3,3,82,82,6,6,71,71,
8-4[8:1],,1-5[8:1],,6,75,8x/4x,,
3h[2:3],,5,5,4,4,5h[1:2],,
2-6[4:1],,,,7-3[4:1],,,,
3h[2:3],,5,5,4,4,5h[4:7],,
2-6[4:1],,,{8},7hx[8:3],,,,8x/5x,,,,,
6,6,4,,53,,42,,1h[2:1]/3q7[4:1],,,,,,,,
3,3,4,,64,,57,,8h[2:1]/6p2[4:1],,,,,,,,
7,7,5,,64,,53,,2,2,4,,53,,46,,
7,7,5,,63,,52,5hx[8:3]/2hx[8:3],,,,,4x/3x,,7x/2x,,
{2}8/3h[1:1],B2/B3,6h[4:3],B7/B6,1>5[2:1],B1/B2,8<4[2:1],B7/B8,
{4}1h[1:1],3,4,5,6h[1:1],7,8,1,
{8}2,2,4,,7,7,5,,5h[2:1]/4h[2:1],,,,,,,,
1bx-5[8:1]/2bx-4[8:1],,,,7-5[8:1]/8-4[8:1],,,,12,,83,,74,,65,,
7,7,8,,61,6^1[4:1]/1^4[4:1],,,,,,,1x,,1x,,
7-5[8:1]/8-4[8:1],,,,1-5[8:1]/2-4[8:1],,,,78,,61,,52,,43,,
2,2,1,,83,83,,2bz6[2:1]b,{1},
{8}7-5[8:1]/8-4[8:1],,,,1-5[8:1]/2-4[8:1],,,,78,,61,,52,,43,,
2,2,1,,83,8^5[4:1]/3^8[4:1],,,,,,,8x,,8x,,
1-5[8:1]/2-4[8:1],,,,7-5[8:1]/8-4[8:1],,,,12,,83,,74,,65,,
7,7,8,,61,61,,7bs3[2:1]b,{1},
1>8qq5[2:3],,
{4}6,6,71,82,3,3,82,71,6h[4:1],4,2h[4:1],4,6h[4:1],4,8x/4x,,
6,6,71,82,3,3,82,71,6-3[8:1],,2-7[8:1],,6,57,8x/4x,,
2h[2:3],,E5,E4,E3,E2,E1,,7h[2:3],,E5,E6,E7,E8,E1,,
2h[1:1],,E6/B5/E5,,7h[1:1],,E5/B4/E4,,
1h[1:1],,E5,E7,8h[1:1],,E5,E3,
{2}1h[2:1],3h[2:1],5h[2:1],7h[2:1],8h[2:1],6h[2:1],4h[2:1],2h[2:1],
1>8[4:7],,,,E1f,,{4}65,43,12,78,
{1}5pp1<3[4:13],,,,4z8pp6[4:9],,,{4}78,12,43,65,
8h[2:1],7,7h[2:1],6,6h[2:1],5,5h[2:1],4,4h[2:1],3,3h[2:1],2,2z6[2:1],,,,
{8}1x,1,1,,2,2,2,,3,3,3,,4,4,4,,5,5,53,,4,4,64,,7,7,5,5,6w2[4:1],,,,
{1},{4},,,7bx/2bx,
{8}1x,1,4,,52,5^8[4:1]/2^5[4:1],,,,,,,1x,,1x,,
7x-4[8:1]/8x-4[8:1],,,,1-5[8:1]/2-5[8:1],,,,78,,65,,43,,12,,
8,8,5,5,7,7,,6bx/1bxs5[2:1]b,,,,,,,,,
7x-4[8:1]/8x-4[8:1],,,,1-5[8:1]/2-5[8:1],,,,78,,65,,43,,12,,
8x,8,5,,74,7^4[4:1]/4^1[4:1],,,,,,,8x,,8x,,
1x-5[8:1]/2x-5[8:1],,,,7-4[8:1]/8-4[8:1],,,,12,,43,,65,,78,,
1,1,4,4,2,2,,5bx/3bxs7[2:1]b,,,,,,,,,{1}8<1pp4[2:3],,
{4}3x,42,51,51,6,75,84,84,3h[4:1],5,7h[4:1],5,3h[4:1],5,5x/1x,,
6,57,48,48,3,24,15,15,6-2[8:1],,1-5[8:1],,6,75,{8}8,1,8,,
7bx/2bx,
E
MASTER
(185){4}
7-5[8:1],1-3[8:1],8-4[8:1],1,2-4[8:1],8-6[8:1],1-5[8:1],8,
{16}8h[16:3],,,6h[16:3],,,5,,{4}5,47,1,35,8,46,
{16}1h[16:3],,,3h[16:3],,,4,,{4}4,25,6pp4[8:3],,,,
{16}1h[16:3],,,3h[16:3],,,4,,{4}4,25,8,46,1,35,
{8}6,6,2,2,8,8,4,4h[4:1],,1,1w5[4:1],,,,,,
8h[4:1],,5,5,7,7,3,3h[4:1],,1,1,4,4,,25,2h[4:1]/5,
,4h[4:1],,5h[4:1],,7,7,,7-4[8:1]/8-4[8:1],,,,35,,35,,
1h[4:1],,4,4,2,2,6,6h[4:1],,8,8,5,5,,47,{4}4/7h[4:1],
5h[4:1],4h[4:1],2h[4:1],8h[8:7],,1bh[8:3],,{8},
2-6[8:1],,8-4[8:1],,1-5[8:1],,7V53[4:1],,8,,2h[4:1],,4,4,3,3,
7-3[8:1],,1-5[8:1],,8-4[8:1],,2>6[4:1],,1,,7,7,{4}5,46,
2-6[8:1],7-3[8:1],1-5[8:1],8,8V64[4:1]*V24[4:1],,,35,
7-3[8:1],1-5[8:1],8-4[8:1],{8}3,3h[4:1],,1,1h[4:1],,8h[4:1],,6h[4:1],,
{2}4b>6[4:5],E6,,E4,
5<3[4:5],E4,,E6,
4>6[4:5],E6,,E4,
{8}4,4,6,6,{4}3,1-4[8:1]/5-8[8:1],,,,1b/8b,
7-5[8:1]/8-4[8:1],7x/8x,1-5[8:1]/2-4[8:1],1x/2x,78,78,56,{8}3,3,
4,2,6,6,5,8,{4}1>5[4:1],5<1[4:1],1,5,37,
1-5[8:1]/2-4[8:1],1x/2x,7-5[8:1]/8-4[8:1],7x/8x,12,12,34,{8}6,6,
5,7,3,3,4,2-8[8:1],,5pp5[8:3]*qq5[8:3],{4},,,4x/6x,
1-5[8:1]/2-4[8:1],1x/2x,7-5[8:1]/8-4[8:1],7x/8x,12,12,34,{8}7,7,
5,6,2,2,4,3,{4}8<4[4:1],4>8[4:1],8,4,26,
7-5[8:1]/8-4[8:1],7x/8x,1-5[8:1]/2-4[8:1],1x/2x,78,78,56,{8}2,2,
4,3,7,7,5,6^3[8:1],,2h[4:1],,8,{4}8z4[8:3],,,
3-8[8:1],7-4[8:1],2-5[8:1],6p5>7[4:3],,,,,
{16}1h[16:3],,,3h[16:3],,,4,,{4}4,4s8[2:1]/5z1[2:1],,,,2x/7x,
{16}5h[16:3],,,7h[16:3],,,8,,{4}8,1V75-3[2:1]/6-2[2:1],,,,2x/4x,
{16}1h[16:3],,,3h[16:3],,,4,,{4}4,35,8p3[4:1],,,12,
{8}3,3,5,5,4,4,{4}7pp8-5[2:1],,,,4x/6x-3-7-2-5[1:2],
,,2xh[2:1],,,,,1x-4-8-5-2[1:2],
,,7xh[2:1],,,,,8x-5-1-4-7[1:2],
,,2xh[2:1],,,,,2x-6-3-8[2:3],
,,8xh[2:1],,,,7xh[2:1],,
A5,A4,A3,A2,A1,A8,A7,A6,
Ch[1:1]/E4,E3,E2,E1,E8,E7,E6,E5,
B3,B2,B1,B8,B7,B6,B5,B4,
Cf,,,,{8}2,2,6,6,1,1,5,,
{1}3q8[2:1]/4^7[2:1],2^5[2:1]/8q5[2:1],
5V31[2:1]/6q4[2:1],2V86[2:1]/5v3[2:1],
1pp3[2:1]/6v8[2:1],2>6[2:1]/7pp1[2:1],
4V26[2:1]/8V25[2:1],{8}47,,25,,7,7,{4}1b,
1-5[8:1]/2-6[8:1],,7-3[8:1]/8-4[8:1],,2h[4:1],4h[4:1],5h[4:1],{8}7,7,
3,3,5,5,1,1h[4:1],,4s8[8:3],{4},,1,1,
2-6[8:1]/8-4[8:1],,1-5[8:1]/7-3[8:1],,28,46,17,{8}3,3,
5,5,1,1,7,7h[4:1],,8-5-1-4[4:3],{1},
Ch[2:3]/B4/B5,{4},,,Cf/E3/E7/B2/B3/B6/B7,
1x/8x,1x-5[8:1]/8x-4[8:1],,3/6pp4[2:1],2h[4:3],,,4,
1-5[8:1]/2-5[8:1],1x/2x,7-4[8:1]/8-4[8:1],7x/8x,1h[8:1]/2h[8:1],6h[8:1]/7h[8:1],2h[8:1]/4h[8:1],{8}6,6,
4,4,8,8,1,1,,3qq5[2:1]/6pp4[2:1],{4},,,3x/6x,
7-4[8:1]/8-4[8:1],7x/8x,1-5[8:1]/2-5[8:1],1x/2x,7h[8:1]/8h[8:1],2h[8:1]/3h[8:1],5h[8:1]/7h[8:1],{8}3,3,
5,5,1,1,7,7h[4:1],,5qq1[8:3],{4},,7,7,
1-5[8:1]/8-6[8:1],1x/8x,1-3[8:1]/8-4[8:1],1x/8x,1h[8:1]/8h[8:1],6h[8:1]/7h[8:1],4h[8:1]/5h[8:1],{8}2,2,
4,4,1,1,7,7h[4:1],,5,,18,{4}18,24,57,
8b<4[4:1],4>8[4:1],8<4[4:1],4>8[4:1],8<4[4:1],4,8,2bx/6bx,
{16}1h[16:3],,,3h[16:3],,,4,,{4}4,1-5[8:1]/8,7-3[8:1],2-5[8:1],6,7,
{16}8h[16:3],,,6h[16:3],,,5,,{4}5,1/8-4[8:1],2-6[8:1],7-4[8:1],3,2,
{16}1h[16:3],,,3h[16:3],,,4,,{4}4,1-5[8:1]/8,7-3[8:1],2-5[8:1],8-4[8:1],2,
{8}1,1,5,5,3,3,7,7,5,5,8,8,2,2,3-6b[8:1]/7-2b[8:1],,
{1},,E
Re:MASTER
(185){16}
45,,6,5,7,,3,4,2,,8,1,8xh[4:1],,,,1,8,1,8,2,7,3,6,4,5,4,,{4}3x/6x,
4h[8:1]/7-5[8:1],3h[8:1],4h[8:1]/7-4[8:1],3-8b[8:1],6^3[8:1],2-6b[8:1],8,3x/7x,
2-4b[8:1]/5h[8:1],7h[8:1],2-6b[8:1]/6h[8:1],7^2[8:1],3-7b[8:1],6-4[8:1],1,2x/8x,
1h[8:1]/6-8[8:1],3h[8:1],1h[8:1]/6-1[8:1],2-5b[8:1],7-4[8:1],3-8b[8:1],5,1x/6x,
{16}2x/8x,,3x/7x,,4x/6x,,3,5,,5,3,,46,,7,5,,5,7,,38,,2,1,2,1,2,,{4}3bx/8bx,
5h[4:1]/7h[4:11],,4h[4:1],,5,5,{8}3,3,{4}3,
4,6,8,8^3[2:1],6,5,4,35,
4h[4:1]/6h[2:5],,5h[4:1],,4,4,{8}5,5,5,,
7,,7,,5,,56,4h[8:3]/7h[8:3],,,,4/7-3[8:1],,1,1,,
{16}2,4,2,4,3,4,3,4,3,5,3,5,{8}2pp1b[8:3],,8x,,6x,6x,,14,14,,
{16}3,5,3,5,4,6,4,6,3,5,3,5,{8}4-2b[8:1]*-8b[8:1],,A4f,,1x,1x,,28,28,,
{16}3,5,3,5,4,5,4,5,3,5,3,5,2,4,2,4,{8}1-5b[8:1],,8,8,,46,46,,
{16}3,5,3,5,2,4,2,4,3,4,{8}3,25,2-8-4-6b[8:3]/5,,6,6,,7x,,18,,
{2}2qq8qq6qq4qq2[4:15]/5xh[1:1],,,,
7xh[1:1],,,,
8-5-2b[2:1],2-7-4b[2:1],4-1-6b[2:1],6-3b[4:1],
{8}2,2,4,3,5,5,4,6,E1/E2/E3/E4/E5/E6/E7/E8/B1/B2/B3/B4/B5/B6/B7/B8`C,,,,,,2/8^5[8:1],,
4b-2[8:1]/8b,,48,7,1-5[8:1]/6,,1/7-4[8:1],8,7>3[4:1],,3>7[4:1],,4,,5,4,
3/6-1[8:1],2-6[8:1],6,2,8,8^3[8:1],,4b-6-3-7-1[2:1]/8,,,,,,,2x/8x,28,
1-5[8:1]/7,,1/6^3[8:1],7,1-3[8:1]/6,,16,7,4/8p3[8:1],,3-6[8:1],,1,,7x,6,
15,8,14,8,15,1w5[8:1]/5,,1b,,3x/7x,37,2,8,35,1^4b[8:1]/7,,
1/5b-7b[8:1],,15,2,3/8-4b[8:1],,2-5b[8:1]/8,3,2<6b[4:1],,6<2b[4:1],,5,,4,4,
35,1,46,8,57,4^1b[8:1]/6,,4/8b-2-7-3-5b[2:1],,,,,,,17,26,
3b-5b[8:1]/5,,3/7-3b[8:1],6,1b-5b[8:1]/7,,15,6,7b>3>7b[2:1],,4,,6,,4,3,
26,5,37,4,12,3-1b[8:1]/8-4b[8:1],,3b/8b,,5,5,5,46,37,2/8-4b[8:1],17,
{4}2bh[4:3]/8b,,,1x,{16}2,8,2,8,3,7,4,6,3,5,3,5,{4}2b/6xb,
7/8b-3[8:1],6-8[8:1],4V63b[4:1],8x,7-4[8:1],3-8[8:1],5-8-6b[4:1],1x,
3^8[8:1],5q2[8:1],4p7b[8:1],6,5-7[8:1]*-8[8:1],5-2[8:1]*-3[8:1],5,1x/8x,
2b/6b^3[8:1],1-5b[8:1],7p3[8:1],8-4b[8:1],7^2[8:1],5-1b[8:1],6,28,
{8}4b/6x,3b,3b/5x,3b,2b/4x,2b,2b/3x,2b,3x/4b,4b,2x-6[8:1]/4b,4b,{4}2x/5x,4x/8x,
3/7p2[2:1],,2>7[2:1],,7-4-2[2:1],,1x,1x,
2q7[2:1]/8,,7<2[2:1],,2-5-7[2:1],,8x,8x,
7p3[2:1],,3<7[2:1],,7V53[2:1],,8x,1x,
2q6[2:1]/8,,6>2[2:1],,2V46[2:1],,8x,8x,
{1}5b/8b-5^4-1b[4:23],E1,
C,E5,
C,E1,
Ch[2560:1],{16}8,1,8,1,7,2,7,3,6,4,5,,37,,,,
{2}C/A3/E8/B1/B3/B8,D2/D3/A2/A6/E7/B7,D1/D4/D8/A4/A8/E4,D3/A3/E1/E3/E8/B8,
D1/D8/A2/A8/E2/B2,E5/E6/B3/B4/B6/B7,E2/E6/B1/B4/B5/B8,D5/D7/A5/A6/A7/E5/E7,
C/A3/E8/B1/B3/B8,D2/D3/A2/A6/E7/B7,D1/D4/D8/A4/A8/E4,D3/A3/E1/E3/E8/B8,
D5/D7/A5/A6/E5/E7,E2/E6/B1/B4/B5/B8,{16}3,,3,,5,4,5,,3,4,3,,6,5,{8}6,
3h[4:1]/7,,4,3,2/6h[4:1],,5,6,{4}4h[4:1]/7,2,17,6-4-7-1b[1:1],
4,3,2,1s5b[8:5],2,3x,3x,,
4h[8:3]/5,3h[4:1],2h[8:3],1h[4:1],8h[4:1],7h[4:1],6h[4:1],5h[4:1],
3h[4:1],1h[4:1],7h[4:1],5h[4:1],{8}4,4,6,6,2,2,8,8,
{4}8-5[2:1]/Cfh[4:7],,,,E6,E5,E7,8x,
{8}8b-2[8:1],1,8-6[8:1],3,8^2[8:1],4,8^6[8:1],5,8-2[8:1],4,8-4[8:1],3,8b,,2x/8x^6[8:1],,
8b-3[8:1],3,8-5[8:1],5,8^3[8:1],3,8^5[8:1],4,8-3[8:1],2,8-5[8:1],5,8^3[8:1],2,8^5[8:1],5,
8-3[8:1],2,8-5[8:1],6,8^3[8:1],1x,8^5[8:1],5,8-3[8:1],2,8-4[8:1],5,8,1,26,,
1b/7b-4b[8:1],,2b-8b[8:1]/7,3,2b-5b[8:1]/6,,2/5b,6,4/7b^4b[8:1],,1b^4b[8:1]/7,,1/8b-4b[8:1],,8b,,
2b/6b,{16}3,4,2b,,7,8,6b,,2,1,3b,,6,5,{8}7b-3b[8:1],3-7b[8:1],7b>5b[4:1],1,1b,,8b,,
7b/8b,{16},6,{8}5b,34,1b/2b,,4b/5b,27,1b-5b[8:1]/8b-6b[8:1],,1b-3b[8:1]/8b-4b[8:1],,1b-5b[8:1]/8b-6b[8:1],,1b/8b,,
1b/8b,27,1b/2b,38,7b/8b,1^4b[8:1]/6-4b[8:1],7b/8b,16,,8,1-5b[8:1],7-3[8:1],1b^4b[8:1],7b^4[8:1],1b,7b,
{4}8bh[2:1],,,3b/5b,{16}6,4,6,4,5,3,5,3,6,4,7,5,8b,,,,
2,4,,4,3-8b[8:1],,3,,6-1[8:1],,6,,4,,3,,2,8,,8,3-7b[8:1],,3,,6-2[8:1],,6,,5,,4,,
3,1,,1,{8}2^5b[8:1],2,7^2[8:1],7,3,3,34,45,5/6h[8:1],{16}4,3,2,1,78,,16,,,,
3,4,,4,2^7b[8:1],,2,,5-1[8:1],,6,,3,,3,,2,8,,8,3^8b[8:1],,3,,7v4[8:1],,6,,3,,,,
2/4bx,,1bx/8,,5/7xb,,6,4,,4,6,,37,,2,1,3,8,4,7,5,6,4,5,3,4,1,,8xv3[8:1]`2xv5b[8:1],,,,
{1}2b,,E
最終更新:2026年02月13日 19:32