BASIC
ADVANCED
EXPERT
MASTER
(127)
{2}3h[2:1],4h[2:1],5h[2:1],6<1[4:1],2h[2:1],
{24},,,8,1,8,7b/2b,,,
{16},,6x/5x,,,2x/3x,,,8x/7x,,7x<4[8:1]/8x>3[8:1],,,,8bx/7bx,,,,
{16}1,1,,8/2h[16:3],,,4,,6,6,,5/7h[16:3],,,8,,2,2,,1/3h[16:3],,,
{8}4,5/2>5[8:1],1/6,7,,
{16}8,8,,1/7h[16:3],,,5,,3,3,,4/2h[16:3],,,
{8}1,3/8-4[8:1],7,2-6[8:1],1,7x<4[8:1],,7x/3q5[2:1],,3x/8b,,,,
{4}6,5/3<6[8:1],3b/7-3[8:1],7b/2<7[8:1],2b/4,2b/6b,
{16}5h[16:3],,,6h[16:3],,,7,,1h[16:3],,,2h[16:3],,,3,,5h[16:3],,,6h[16:3],,,
{8}7,1h[4:1],B3/B4,D4/A4,,
{16}8h[16:3],,,7h[16:3],,,6,,2h[16:3],,,3h[16:3],,,4,,6h[16:3],,,7h[16:3],,,
{8}8,8-5[8:1]*-3[8:1],,8bx,,
{16}4h[16:3],,,3h[16:3],,,2,,8h[16:3],,,7h[16:3],,,6,,4h[16:3],,,3h[16:3],,,
{8}2,8h[4:1],B6/B5,D6/A5,,
{16}1h[16:3],,,2h[16:3],,,3,,7h[16:3],,,6h[16:3],,,5,,3h[16:3],,,2h[16:3],,,
{8}1,1<6[8:1]*>4[8:1],,,,5,,,6/4,3/7-1[8:1],,5,,
{16}2h[16:3],,,4,,,3,,
{8}3/4<7[8:1],,,,2,2,4,3,5/2-5[8:1],,6,,
{16}7h[16:3],,,5,,,6,,6/5,,,,4,4,
{8}5,6/4,,,3/5,6/2-8[8:1],,4,,
{16}7h[16:3],,,5>1[16:3],,,6,,
{8}8<5[8:1],,,,2,2,4,3,6,5,7,7,
{4}1>4[8:1],8-5[8:1],1pp1[4:1],,
{4}8h[4:1],E4,7h[4:1],E3,6h[4:1],E2,5h[4:1],E1,
{4}4h[4:1],E8,3h[4:1],E7,2h[4:1],E6,1h[4:1],E5,
{16}7x/8x,,,2x/3x,,,6x/5x,,7x<4[8:1]b/4x>1[8:1]b,,,,7x/4x,,,,
{16}8,8,,1/7,,2,4,,4,3,,1/5,,7,5,,5,6,,8/4,,1,
{8}1,2-4[8:1]/8-4[8:1],3/7,8x/2x,,
{16}6,6,,7h[16:3]/5-1[8:1],,,,,8,,7,7h[16:3],,,1,1,
{8}6v1[8:1],2-5[8:1],6x,2x,8w4[8:1],,8b,,
{16}2/6,6/2,,7,,7,5,,5,6,,8/4,,2,4,,4,3,,1/5,,8,
{8}8,1-5[8:1]/7-5[8:1],2/6,7x/1x,,
{16}3,3,,2h[16:3]/4-8[8:1],,,,,1,1,,8h[16:3]/2>5[8:1],,,,,
{8}6,7,8/1,2,3/4V28[4:1],,8V64[4:1],,4,,,6/5,7/8,1/2,3/4,6/5,
{4}8-4[8:1]/7-3[8:1],Cf,1-5[8:1]/2-6[8:1],Cf,
{16}2h[8:1]/8h[8:1],,,6h[8:1]/5h[8:1],,,1h[8:1]/7h[8:1],,,4h[8:1]/3h[8:1],,,8b/1b,,,,
{16}6/5,,2,4,3,,
{16}7,7,5,6,5,6,4,5,4,5,3,4,3,6,5,7,3,4,2,8,1,8,
{16}2<7[8:1],,4,,4,,,,6,6,5,7,,,1,8,1,,2/7,,
{16}3x,3,4,2xh[8:1],,8,8xh[8:1],,6,6xh[8:1],,4,
{8}4xh[8:1],2,1b/5b,,,5,4,3,2q3[8:3],1,8,,,4,5,6,7p6[8:3],8,1,,,5,4,3,2/6,7,
{16}8/4h[16:3],,,2h[16:3],,,
{8}1,8-5[8:1]/1-4[8:1],,8/1,,
{16}3,4,2,5,1,6,8,7<4[8:1],
{8}1h[16:3],,,1,
{16}6,5,7,4,8,3,1,2>5[8:1],
{8}8h[16:3],,,8,7/1,6/2,5/3,4,
{16}8/7h[16:3],,,5h[16:3],,,4,,
{16}1/2,,,7/6,,,3/4,,8h[8:1]/7h[8:1],,,5h[8:1]/4h[8:1],,,1/2,,
{32}E8,B7,B6,,,,B2,B3,E4,,,,
{8}8,1b/7h[2:1],,,,5h[8:7],,,,,,,3,3h[8:7],,,,,,,1,1h[8:7],,,,,,,
{8}6,6,,7<4[4:1],,,,,,3h[8:3],,,4,2-4[8:1],,,,
{16}6h[16:3],,,5h[16:3],,,7,,7-5[8:1],,,,4,,,,
{16}2h[16:3],,,3h[16:3],,,4,,6h[16:3],,,5h[16:3],,,
{8}4,2,3,4>1[8:1],5,6,,5pp4[8:3],,1b,,,,
{24}2,4,2,4,2,4,3x,,,7bx,,,
{16}8/2,8/2,,6/4,,7,5,,5,5/6,,8/4,,2,4,,4,4/3,,1/5,,8,8,,
{8}2V46[8:1]/6<1[8:1],1/5,6x/2x,,
{16}8,8,,2,1,2,8x/3x,,4,4,,2/6h[16:3],,,
{8}5,3v8[8:1],7-4[8:1],3x,7x,1w5[8:1],,1b,,
{16}7/3,3/7,,2,,2,4,,4,4/3,,1/5,,7,5,,5,5/6,,8/4,,1,1,,
{8}4/3>8[8:1],8<5[8:1],5x,,1,
{16}8/2-6[8:1],2/8h[16:3],,,,,8,8,,1h[16:3]/7<4[8:1],,,,,
{8}3,2,4,5,
{24}4x,6,4,6,4,6,3,7,3,7,3,7,
{8}2bx/8bxh[4:3],,,3,5,7,1-5[8:1],3,
{4}1b/7<4[8:1],7b/3>8[8:1],3b/6v1[8:1],6b/4qq5<4[2:3],4bx/B8/B7/E8f,,,,,,
{8}6,7,
{4}8qq3<7[8:11],E4f/B3/B4,,2,2,1,1,8w4[8:1],8b,
{16}2/6,3,4,5,,8,8,,2/6,3,4,5,,8,8,,2/6,3,4,5,,8,8,,2,1,
{8}3x/8x,8x/3x,6/5,
{16}7/3,6,5,4,,1,1,,7/3,6,5,4,,1,1,,2,4,3,7,5,6,4,,1x/7x<1[16:3],,
{48}A2,E3,B3,B4,E5,A5,7bx,
E
Re:MASTER
最終更新:2026年04月25日 21:47