BASIC
ADVANCED
EXPERT
MASTER
(124)
{8}B3,B4,B5,B6,
{4}E1/B1,E7/B6,B2/E3,B5/E5,
{8}3x,4x,5x/6x,
{16}7x,7x,1bh[8:1],,
{8}8bh[8:1],1-4[8:1],,6h[4:1],,5,4,5h[4:1],,4,3,4h[4:1],,3,2,2>6[6:1],8,8,,
{8}7,7,1,1,8h[4:1]/2>6[6:1],,,7,7/8,2,1/2>6p8[8:3],8,
{4}8,7,6h[4:1],
{8}5,5,7-3[8:1],4,2x,,2/1,3,4/5,6,3/7-3[8:1],4,2x,,3/7-3[8:1],5,1x,,3/7-3[8:1],6,8x,,
{8}1/7h[4:1],,5,6/4,
{24}2,,2,,,3/4,,,5/6,,,8x/1x,1b/8b,,,7,,5,6,,,3,,5,4,,,7-1[12:1],,5,
{8}6,4,4x,
{24}2,,4,3,,,6,,4,5x,,,2-8[12:1],,4,
{8}3x,5,5,
{24}6,,5,,,,5/4,,,3,,3h[6:1],,,,4,,,1/5,,,2>5[8:1],,,,,8,,,,6,,,4,,4h[6:1],,,,
{8}5,3/7,2b/6b,
{24}1,,4,3,,,6,,4,5x,,,2,,4,3,,,7,,5,6x,,,3,,5,4,,,8,,5,
{8}6x<1[8:1],3,3x,2,
{24}1/2h[24:5],,,,,4h[6:1],,,,5,,,8/7h[24:5],,,,,5h[6:1],,,,4,,,
{4}2v3[8:1],1p4[8:1],8<5[8:1],,
{24}3b/7bh[4:1],,,,,8,8>6[6:1],,,6,,,8x,,,,,
{24}1,1<3[6:1],,,3,,,1x,,,,,8,8w4[8:1],,,7/1,,,8x,,,,,,
{24}5/3,,,7/8,,,6x/2xh[4:1],,,,,1,1V75-3[6:1],,,3,,,1x,,,,,
{24}8,8V24-6[6:1],,,6,,,8x,,,,,1,1>4[8:1]*<6[8:1],,,
{8}2/8,1x,,4/6,1/2,
{4}3v8[8:1]/7-4[8:1],Cf,
{24}2/6,,,,,8,8-4[8:1],,,2,,,
{4}8-6[8:1]/1-6[8:1],1-3[8:1]/8-3[8:1],8/1w5[8:1],1b,
{24}3/7h[24:5],,,,,5,6,,,8/4,,,6/2h[24:5],,,,,4,3,,,1/5,,,
{4}2xV46[6:1]/6xV82[6:1],2x/6x,8xV64[6:1]b/4xV28[6:1]b,,
{48}1/5h[4:1],,,,{8},{48}2,3,4xh[8:1],,,,,,{8}6,
{48}1/7h[4:1],,,,{8},{48}1,2,3xh[8:1],,,,,,{8}6,
{48}1/5h[4:1],,,,{8},{48}8,1,2xh[8:1],,,,,,
{8}6,7h[4:1]/1-5[8:1],,1x,7,
{48}8/4h[4:1],,,,{8},{48}7,6,5xh[8:1],,,,,,{8}3,
{48}8/2h[4:1],,,,{8},{48}8,7,6xh[8:1],,,,,,
{8}3,8/4,7/3,6/2qq7[2:1],5/1,,,,,6h[8:3],,,5,4/6-4[12:1],,2,,3h[8:3],,,4,
{4}5/3-5[12:1],7,6h[8:1],4h[8:1],
{8}5/3,5,6h[8:1]/4h[8:1],,7,8,1,2,3pp3[4:1]b,,,,8x,,2/6,
{24}3/4,,1,8x,,,,,6,5,,,7/4,,1,8x,,,,,3,4,,,2/5,,1,8x,,,,,
{24}4,6,,6,5,,5,8x,,,,,3,4,,4,1,,1,
{8}8x,7/2,6/1-5[8:1],2,8-4[8:1],7,1,2,
{24}1/2,,3/8x,,4,6,5,,8bxh[12:1]/4bxh[12:1],,,,
{24}3x/7x,,,2,,4,3,,,6,,4,5x,,,2<8[12:1],,4,
{8}3,5,5x,
{24}7,,5,6,,,3,,5,4x,,,7>1[12:1],,5,6x,,,4,,,4,,
{24}6,5,,5,7,,7,1,,1,8,,8,2,,2,4,,4,3,,,
{24}5/4,,6,5,,5,7,,3,4,,4,2-6-2[6:1],,1,8,,,{8},,
{24}7b/3bx,,,8,,5,6,,,3,,5,4,,,7,,5,6,,,2,,2/4,,,5/4,,,6,5,,,7/3,,7/3,,,2,1,,7,
{8}8,1/6>3[8:1],1/6h[24:5],,,5/2<7[8:1],5/2h[24:5],,,4,
{8}1x/7h[48:1],8x/2h[48:1],1x/6h[48:1],8x/3h[48:1],2x/E6f/B5/A5,7x/E4f/B4/A4,1b/8b,,
{24}7/3,,,,,1,1xq6[8:1],,,8/7,,,1,,,,,8,8xp3[8:1],,,1/2,,,8,,,,,1,1x-5-2-4[8:3],,,
{8}8/7,1,,6x,8,
{24}2/6,,,,,8,8xp3[8:1],,,1/2,,,8,,,,,1,1xq6[8:1],,,8/7,,,1,,,,,8,8x-4-7-5[8:3],,,
{8}1/2,8,,2x,1,
{4}8q4[12:1]/4q8[12:1],Cf,
{24}1x/5x,,,,,3,3<6[8:1],,,8/1,,,
{4}7p2[8:1],3<6[8:1],7p2[8:1],1,
{24}3/7h[24:5],,,,,5,6,,,1/7,,,6/2h[24:5],,,,,4,3<7[4:1],,,2/8,,,
{4}7>3[4:1],3q5[8:3],
{2}5,7h[1:3],E7,E6,E5,E4,E3,
{24}8b,,,3b/5b,,,4,,4,6,,6,5-1[8:1]b*-2[8:1]b,,,3/7,,,{8},,
{24}8b/7b,,,,,6,5/6,,,4/8,,,1/2,,,,,3,4/3V52[6:1],,,2/5,,,
{4}6xV47[6:1],1xV38[6:1],8xV61[6:1],4b,
{24}3/7h[4:1],,,,,8,8>6[6:1],,,6,,,8x,,,,,1,1<3[6:1],,,3,,,1x,,,,,8,8w4[8:1],,,
{8}2/6,8x,,1/7,3/4,
{24}6x/2xh[4:1],,,,,1,1V75-3[6:1],,,3,,,1x,,,,,8,8V24-6[6:1],,,6,,,8x,,,,,1,1>4[8:1]*<6[8:1],,,
{8}3/7,1x,,8/2qq3[12:5],5/6,
{4}2b,6qq7[12:5],6b,1,A8/E1/E2/A2,A7/B7/B3/A3,A6/E6/E5/A4,Cf,
{24}1/2h[24:5],,,,,4,3,,,1/5,,,8/7h[24:5],,,,,5,6,,,8/4,,,1/2h[24:5],,,,,4,3qq5[4:1],,,
{8}5,6,,8,7,
{24}2/6h[24:5],,,,,5,7,,,1/8,,,7/3h[24:5],,,,,4,2-6[12:1],,,8/1,,,
{4}7-1[12:1],3-5[12:1],6,
E
Re:MASTER
最終更新:2026年03月06日 00:32