BASIC
(204)
{1},,1,1,1,1,8,8,8,1/8,
{2}1,1,2,,3,3,3/4,,5,5,6,,7,7,7/8,,8,8,7,7,6,6,5/4,,4,4,3,3,2,2,1/8,,{1}B8,B1,B7,B2,B6,B3,B5,C,
{4}1b,1,1,,2,,2,,3,3,3,,3/4,,,,5,5,5,,6,,6,,7,7,7,,7/8,,,,8,8,8,,7,,7,,6,6,6,,5/4,,,,4,4,4,,3,,3,,2,2,2,,1/8,,,,
{1}1h[1:1]/2h[1:1],,3h[1:1]/4h[1:1],,5h[1:1]/6h[1:1],,7h[1:1]/8h[1:1],,
{2}8,8,7,7,6,6,5/4,,4,4,3,3,2,2,1/8,,1-5[4:3],,,,8-4[4:3],,,,2-5[4:3],,,,7-4[4:3],,,,1h[1:1],,,,
{4}1b,1,1,,2,2,2,,3,3,3,,3/4,,3/4,,5,5,5,,6,6,6,,7,7,7,,7/8,,7/8,,8,8,8,,7,7,7,,6,6,6,,5/4,,5/4,,4,4,4,,3,3,3,,2,2,2,,1/8,,,,{2}1/2,1/2,1/2,,3/4,3/4,3/4,,5/6,5/6,5/6,,7/8,7/8,7/8,,{4}8,8,8,,7,7,7,,6,6,6,,5/4,5/4,5/4,,4,4,4,,3,3,3,,2,2,2,,1b/8b,,,,
{2}1,1,1/2,1/2,3,3,4/5,4/5,6,6,6/5,6/5,7,7,8/1,8/1,2b/7b
E
ADVANCED
(204)
{4},,,,,,,,2,2,2/1,,3,3,3/4,,5,5,5/6,,7/8,7/8,7/8,,7,7,7/8,,6,6,6/5,,4,4,4/3,,1/2,1/2,1/2,,
{4}2-5[4:3],,,,,,6,,7-4[4:3],,,,,,3,,2-6[4:3],,,,,,7,,8-4[4:3],,,,,,3/4,,3,3,3,,2,2,2,,1,1,1,,8/7,,8/7,,6,6,6,,7,7,7,,8,8,8,,1/2,,1/2,,3h[2:1],,4h[2:1],,5h[2:1],,6,,6h[2:1],,5h[2:1],,4h[2:1],,3,,2h[2:1],,3h[2:1],,4h[2:1],,5,,7h[2:1],,6h[2:1],,5h[2:1],,4,,
{4}3bx,3,2,2,1,1,8/7,,6,6,7,7,8,8,1/2,,2,2,3,3,4,4,5/6,,7,7,6,6,5,5,4/3,,3,3,2,2,1,1,8/7,,6,6,7,7,8,8,1/2,,2,2,3,3,4,4,5/6,,7,7,6,6,5,5,4/3,,{4}5,5,6,6,7,7,8,8,1,1,2,2,3,3,4/5,,4,4,3,3,2,2,1,1,8,8,7,7,6,6,5/4,,
{1}3q6[4:5],,7p4[4:5],,2q5[4:5],,6p4[4:5],,{4}B2,B3,B4,,B7,B6,B5,,B1,B2,B3,B4,B6/B5,,,,B8,B7,B6/B5,,B1,B2,B3/B4,,B8,B7,B6,B5,B3/B4,,,,Ch[1:1],,,,,,,,
{4}2x,2,1/2,1/2,8,8,8/7,,6,6,7/8,7/8,1,1,1/2,,2,2,3/4,3/4,5,5,5/6,,7,7,6/5,6/5,4,4,4/3,,3,3,2/1,2/1,8,7,6/5,,6,6,7/8,7/8,1,2,3/4,,2,2,3/4,3/4,5,6,7/8,,7,7,6/5,6/5,4,3,2/1,,1,2,3,4,5,6,7/8,,8,7,6,5,4,3,2/1,,1,2,3,4,5,6,7,8,1,2,3,4,4/5,4/5,3/6,,3,3,3,3/4,2,2,2,2/1,8,8,8,8/7,6,6,6b/5b,,6,6,6,6/5,7,7,7,7/8,1,1,1,1/2,3,3,3/4,,
{4}3h[2:1],,4,,3,3,3/4,,2h[2:1],,1,,2,2,2/1,,7h[2:1],,8,,7,7,7/8,,6h[2:1],,5,,6,6,6/5,,4bx/5bx
E
EXPERT
(204){1},
{2}4h[4:5],,5h[4:1],
{4}4/5,4/5,3x,2,8,1/7,6,7,1,2/8,3,2,8,1/7,2h[4:1]/8h[4:1],,3/7,,3,2,8,1/7,6,7,1,2/8,3,3/4,6,5/6>3[2:1],,,,1,2h[2:1],,4h[2:1],,E3,E4,E5,,6h[2:1],,5h[2:1],,E8,E7,E6,,3h[2:1],,4h[2:1],,E2,C,E6,,5h[2:1]/6h[2:3],,,,Ch[2:1],,,,7,7,7/8,7/8,1,2/4,3/5,3/5,6,6,5/6,5/6,4h[4:1]/7h[4:1],,5h[4:1]/6h[4:1],,4,4,3/5,2/4,1,1,2/8,2/8,1h[4:1]/7h[4:1],,7h[4:1]/8h[4:1],,5/6,5/6,4b/7b,,
{1}3-6[2:1],7-4[2:1],2-5[2:1],6-3[2:1],
{4}2,2,3h[4:1]/4h[4:1],,5,5,4h[4:1]/6h[4:1],,4/5h[2:1],,4h[2:1],,5,4/5,2x/7x,,1b/2b,3/8,7/8,1/6,5/6,4/7,3/4,2/5,2h[4:1],1,7h[4:1],8,5/6,5>2[4:1]/6<1[4:1],,,3x/8x,3/8,2/7,1/6,2/5,3/4,4/7,5/6,4h[4:1],3h[4:1],2h[4:1],1,2b/8b,4b/6b,3b/7b,,7h[4:1],8,2h[4:1],1,3/4,2/5,5/6,4/7,7/8,7/8,5/6,3/4,1/2,1-5[4:1]/2-6[4:1],,,7h[4:1],8,1/6,3/4,2h[4:1],1,3/8,5/6,4>1[4:1],,8<5[6:1],,
{8}3bxh[8:3],,,4x,4x,,
{4}3/5,1b/7b,,6,7/8,1,1,2/8,3/7,6h[4:1],5,3h[4:1],4,1/2,1/2,3/8,,7h[4:1],8,2h[4:1],1,7h[4:1],5,2h[4:1],4,6h[4:1],5,3h[4:1],4,
{8}5,4,5,,
{4}3b/6b,,6x>3[8:3],,,2,2<7[8:3],,,6,6>3[8:3],,,2,2<7[8:3],,,6,5x/6x<1[8:3],,,2,1/2>5[8:3],,,6,6/5-3-1-7[16:13]b,,,,,,1x/8x,,2bx,2h[4:1],1h[4:1],8h[4:1],7h[4:1],6h[4:1],5h[4:1],4h[4:1],3h[4:1],2h[4:1],1h[4:1],8h[4:1],7h[4:1],6h[4:1],5h[4:1],4h[4:1],3xh[4:1],2h[4:1],1h[4:1],8h[4:1],7h[4:1],6h[4:1],5h[4:1],4h[4:1],3h[4:1],2h[4:1],1h[4:1],8h[4:1],7h[4:1],6h[4:1],5h[4:1],4,3h[1:1]/6bxh[2:1],,,,6bx,6bx,3x/6bx,1x/8x,1b/2b,5/6,7/8,3/4,1/2,7/8,5/6,3/4,2/5,3bx/4bx,5bx/6bx,7bx/8bx,1bx/2bx,4bx/3bx-8[4:1]b,,,7xh[4:1],5h[4:1],4h[4:1],2,2h[4:1],4h[4:1],5h[4:1],7,7/8,1/6,1/2,3/8,1b/7b,3b/5b,2b/6b,,2xh[4:1],4,7h[4:1],5,3/4,1/2,7/8,5/6,2h[4:1],4,6h[4:1],4,2/5,3/4-8[4:1],,,1x/7x,
{8}6,5,6,,4/7,,2/8,,3,4,3,,
{4}2/5,6<1[4:1],,3<6[4:1],,
{8}7xh[8:3],,,8x,8x,,
{4}1bx/6bx,2x-5[4:1],,
{2}8-4[4:1],1-5[4:1],7-4[4:1],1-5[4:1],8-4[4:1],2-5[4:1],8bx,
{8}6,5,6,,4/7,,5/6,,3,4,3,,2/5,,3/4,,6,5,6,,
{4}4/7,6/3>6[2:1]b,,,,4x/5x,2x/7x,3/4,1/8,5/6,8/7h[4:1],5,1/2h[4:1],4,5/7,1/8,2/4,4/5,5b/7b,1b/8b,3b/7b,,1x/8x,3/4,1/8,5/6,3h[4:1],1h[4:1],8h[4:1],6,5/7,5/7,1/8,2/4,4/5,6>3[4:1],,,1b/2b,1/2,3/8,5/6,7h[4:3],8,1,8,7/8,7/8,1/6,3/4,2h[4:3],1,8,1,8<5[4:1],,1>4[4:1],,6h[4:3],5,4,5,4/7,4/7,2/5,2/5,
{8}1/7,1/7,1/7,,2/8,2/8,8/2-6[16:3]b,,
E
MASTER
(204){1},
{8}E8,,E2,,B8,,B1,,6,6,4,4,5,5,3,,2-4[8:1]/4,,5,6,7-5[8:1],,4,3,2,2,4,3,7,7,5,6,2>4[8:1],,5,6,7<5[8:1],,4,3,2,2,4,3,6,6,5,7,2-4[8:1],,1,8,7-5[8:1],,8,1,2-7[8:1],2,5,5,6-3[8:1],6,1,1,2>4[8:1],,1,8,7<5[8:1],,8,1,2,2,7,7,1,8,{4}2b/7b,
4/6qq7b[8:3],,,2,8/1pp4[2:1],,,6,5pp5b[4:1]*qq5b[4:1],,,7x,8-5[4:1]*q5[4:1],,,46,3/7pp4[2:1],,,2,1-5-3[8:3]/5,,,6,3,34,45,5pp7[4:1]*qq3[4:1]/6,,,6h[2:1],{16}8x,1x,2x,3x,{4}4xq1[2:1],6,6,6,6-2<4[4:3],3,3,3,3q5[2:1],5,6,7,6>3[4:1],3<6[4:1],7,1,37,6-8[8:1],5,6-1[8:1],5,6<1[8:1],4,3-8[8:1],6,7,16,5V37[8:3]/3V51[8:3],,,,28,
37,{8},2,2h[2:1],,,3,3h[2:1],,,4,4,,34,,34,,,7x,7xh[2:1],,,6x,6xh[2:1],,,5x,5x,,56,,45,,23,,18,,67,,45,3,25,6,47,3,26,7,18,,,78,16,,,12,3/8<5[8:1],,1>4[8:1],,8,,7-4[8:1]/3-8[8:1],,
3b/7b,,15,,28,37,6<2[4:1],,2<6[4:1],,5,,3-5[8:1],,3/7-3[8:1],,17,,2,3,6,7,4>3-1<8[4:1]/8,,8<7-5>4[4:1],,4V28V64[8:3],,8b,,,,8,,2,2,6,5,4/7-3b[8:1],,2<1-5<6b[4:1]/7,,,,7,,78,,16,,2,2,4,3,3q5b[4:1],,5<3b[4:1],,8,,Cf,,,7,7-3[8:1],,1-5[8:1],1,6-1[8:1],6,2-6[8:1],2,8-5[8:1]*-3[8:1],,,,17,,2h[8:1]/4h[8:1],,5h[8:1]/7h[8:1],,6,6,5,4,3,2,5<8[8:1]/1>4[8:1],,5v3[8:1]/1v7[8:1],,,,,,48,,57,6,34,2,1>4[8:1],8,1<6[8:1],,1-5[8:1],,1,,7-4[8:1]/3-8[8:1],,37,,15,6,78,1,25,6,3bh[4:1]/7bh[4:1],,,18,8-3[8:1]/1-3[8:1],,8-6[8:1]/1-6[8:1],,
1x/8x,,,,56,,47,,2,2,4,3,6,6,5,5,7<4[8:1],,3,2,1>4[8:1],,5,,7,7,5,6,3,3,4,4,1q5[8:1],,6,7,8p4[8:1],,2,,3,3,4,2,6,6,5,5,8p4[8:1],,3,2,1q5[8:1],,6,7,8,8,2,6,45,45,{4}36,
7h[2:1]/4q5[2:1],,,7,4h[2:1]/6-3[4:1],,,34,3h[2:1]/4<8[8:3],,,12,3h[2:1]/8-4[4:1],,,34,2>7<2[1:1]/5,,7,8,8-4[8:1],,1,15,6pp5[2:1]/2pp1[2:1],,,,8>3[4:1]/4<7[4:1],,,26,5x-1b[8:1],3,4x-8b[8:1],6,7v4[8:1]/1v4[8:1],1x/7x,6-2[8:1]/3-5[8:1],3x/6x,4x/8x,12,34,56,7-2[8:1],3-6[8:1],7-2[8:1],3,4/8<5[4:1],5-1[4:1],1>4[4:1],4-8[4:1],8qq5[2:1],4,3,2,2bx,3-6[4:1],6-1[4:1],1-4[4:1],4-7[4:1],7-2[4:1],2-6[4:1],6,8h[2:3],,,{8},6,6,,5-1[8:1],,5,,6-1[8:1]/2-5[8:1],,
2b/6b,,48,,17,26,3>7[4:1],,7>3[4:1],,4,,6-4[8:1],,2-6[8:1]/6,,28,,7,6,25,3,5<7b[8:1]/4>2b[8:1],,5bs1b[4:1]/4bz8b[4:1],,,,,,27,,3h[4:1]/4,,1<6[8:1],1,4>1[8:1],4,7-3[8:1],,2-6[8:1],,8,,1x/7x,,4-8[8:1]/2-5[8:1],,24,,7,6,4,3,25,,1<6[8:1]*>4[8:1],,1w5[8:1],,1b,,,7,7V51[4:1],,4,,2V48[4:1],,8,,7qq7[4:1],,1,,1,,28,,46,,3,4,5,6,37,,2-4[8:1]/1-7[8:1],,2-6[8:1]/1-5[8:1],,1b/2b,,,,7-3b[8:1],,3>4b[4:1]/7,,1,,3,,1-5b[8:1],,1/7-3b[8:1],,17,,24,,15,,37,6,25,1,78,6,1bh[4:1]/5bh[4:1],,,26,{4}6-1[8:1]/2v5[8:1],2<4p3[4:5]/6,
Cf,,,,,,24,24,{16}3,4,3,,,,25,,2h[8:1]/5h[8:1],,,,8h[8:1]/7h[8:1],,,,6,5,6,,,,47,,4h[8:1]/7h[8:1],,,,1h[8:1]/2h[8:1],,,,3,4,3,,,,12,,1h[8:1]/2h[8:1],,,,8h[8:1]/7h[8:1],,,,6,5,6,,,,78,,7h[8:1]/8h[8:1],,,,1h[8:1]/2h[8:1],,,,3,4,2,,,,17,,1h[8:1]/7h[8:1],,,,3h[8:1]/4h[8:1],,,,6,5,{8}7,,28,8h[8:1]/2h[8:1],,5h[8:1]/6h[8:1],,
3x/4x<7[8:1],,1-5[8:1],1,8,8,4,,6-2[8:1]/2-5[8:1],,2<3b[4:1]/6,,4,,1b,,24,,78,6,45,3,1/2-5[8:1],,2/6-1[8:1],,4-7[8:1]*-1[8:1]/6,,4,,,,8p4[4:1],,4>8[4:1],,8<4[4:1],,4V68b[4:1],,8V24[4:1],,4,,8,,6<1[8:1]/5>2[8:1],,56,,4-8[8:1]/3-7[8:1],,34,,5w1b[8:1]/6,,D5/D6/A5f,,,8,7,6,2,3,
4/5<8[8:1],,3,2,1>4[8:1],,8,7,6-1[8:1],6,2-5[8:1],2,7-4[8:1],7,3,3,2-4[8:1]/5,,6,7,8-6[8:1],,3,2,1-4[8:1],1,5-8[8:1],5,3-6[8:1],3,7-2[8:1],7,4-2[8:1],,8,7,6-8[8:1],,1,2,3-8[8:1],3,7-4[8:1],7,2-5[8:1],2,6,6,4/7-5[8:1],,3,2,1-3[8:1],,6,7,8-4[8:1],8,3,3,26,{16}1,8,1-6[8:1]*-4[8:1],,27,,{1}1,,,,,,,
E
Re:MASTER
- EXPART作業中です! -- やさいたち (2026-05-27 21:55:21)
最終更新:2026年08月03日 15:00