アットウィキロゴ

のだ

アーティスト 大漠波新

BPM BASIC ADVANCED EXPERT MASTER Re:MASTER
142 3 6 9+ 13 -

EXPERT MASTER Re:MASTER
譜面制作者 サファ太 Luxizhel & はっぴー -

BASIC


ADVANCED


EXPERT

(142)
{2}6b/4h[1:1],,7h[2:1],6h[2:1],5h[2:1],4,5/3h[2:1],4h[2:1],5p4[2:1],,
{4}3h[4:3],5,5,4,2/5,5/2>5[4:1],,,6,5/6,3,3/4,4/5,3/6<1[4:1],,,2-6[4:1],,7-3[4:1],,2,1<6[4:1]/2>5[4:1],,,7h[4:1],5,3h[4:1],4,2/5,3>8[4:1]/4<7[4:1],,,6h[2:1],5h[4:1],,5/6,3h[2:1],4h[4:1],,
{2}4/3-6[4:1],7<4[4:1],1s5[2:1],,
{16}4x/6x,,,,1h[16:3],,,2h[16:3],,,3,,8h[16:3],,,7h[16:3],,,6,,2h[16:3],,,3h[16:3],,,
{8}4,4,,1/7,,6,6,5/7,,3,3,2h[4:1]/4pp4[2:1],,,,,,3x,,2x/5x,,
{16}8h[16:3],,,7h[16:3],,,6,,1h[16:3],,,2h[16:3],,,3,,7h[16:3],,,6h[16:3],,,
{8}5,5,,2/8x,,3,3,3/4,,6,6,5-2[4:1]/6-1[4:1],,,,,,
{2}3b/8b,5h[4:1]/7h[4:1],3h[4:1]/4h[4:1],
{16}1x,,,2x/8x,,,
{8}3x/7x,3b-1v4[4:3]/7b-5v8[4:3],,,,{1},
{4}7h[4:1],6h[4:1],5h[4:1],6h[4:1],7h[4:1],8-3[16:5],,,E4,E5,E6,C,1h[4:1]/8h[4:1],,2/7,,3<6[16:5]b,,7,7,6>3[4:1]b,,2b,2,
{8}3,3,4,,6,6,5,,
{4}4/6,3/7p3[16:5]b,,,1/2,1b/2b,7/8,7b/8b,1/3,1b/3b,6/8,6b/8b,2/4,2b/4b,5/7,5b/7b,3/4,3b`4b-7[4:1]b*-1[4:1]b,,,1/7h[4:3],1,8,1,8x/2h[4:3],8,1,
{16}8,,,,,8<5[4:1],,,,,,,
{4}1>4[4:1]b,,5,5,3b/7b,,
{2}1/2-5[16:3]b,8/7-4[16:3],1/2b-5[16:3]b,
{4}7/8,1/5,2h[8:1]/4h[8:1],2h[8:1]/4h[8:1],5h[8:1]/7h[8:1],5-1[4:1]/7-3[4:1],,,2x/8x,
{8}1,1,8/7-4[16:3],,,,
{4}1/2-5[8:1]b,,8/7-4[16:3],,1/2,3/8,
{8}7,7,5,,2,2,4,,
{4}1x/7x,3/5,2b/6b,,1/2,1/2,3/4,1/2,7/8,7/8,5/6,7/8,
{8}1,1,7,7,2,2,8,8,1/2,1/2,1/2,,4b/8b,,4/8,,
{16}7h[16:5],,,,,5h[16:3],,,
{4}3h[4:1],5h[4:1],7h[4:1],1h[4:1],3h[4:1],1h[4:1],8b,
{8}5/7,5/7,5/7,,3/4,3/4,3/4>5[4:3]{1},
{2}B4/B5/E5f,,Ch[1:1],,D1,E1,C,E5,Ch[2:1],,
{16}8<5[16:5],{2},
{2}1>4[4:1]b,
{16}8-4[16:3],,,{2},
{8}2/5,,6,6,4,,3,3,5,,6,6,4,4,5,5,4-1[4:1]/5-8[4:1],,{1},
{4}2bh[8:3]/7h[8:3],,2b-5[8:1]b/7-4[8:1],,3x/6x,1/2,7/8,6`5pp5[16:7]*qq5[16:7],,,4x/6x,1/8,1-5[8:1]b/2-5[8:1]b,,7-4[8:1]b/8-4[8:1]b,,1-5[8:1]b/2-5[8:1]b,,7/8,1b/5b,
{8}2,2,4,3,6,6,5,7,1-5[8:1]/8-4[8:1],,,,
{2}3b/6b,7-3[4:1],2-6[4:1],
{8}7h[4:1],,8,1,2h[4:1],,
{4}1b,8<5[4:1]b,,4>1[16:5]b,,,1h[8:1]/7h[8:1],2h[8:1]/8h[8:1],3/7,2/1-5[8:1]b,,
{2}7/8-4[8:1]b,2x/1x-6[8:1],7/8-3[8:1],
{8}2,2,1/3,,7,7,6/8,,4bh[16:47]/5bqq5pp5[16:43]b,,
E

MASTER

(142){1},
,{16}E6,B5,B4,E4,,,,,E6,B5,B4,E4,,,,,E7,E6,E5,E4,,,,,E6,E5,E4,E3,,,,,B6,B5,B4,B3,,,,,B6,B5,B4,B3,,,,,D6,D5,D4,D3,,,,,A6,A5,A4,A3,{8},,3,3,4,4,2,35,7,46,3,2,1<6[8:1]*>4[8:1],1,,,4x/6x,,3,3,2,2,1,1,8,8,37,37,26,26,{16}1-5[8:1],5,1,5,1b,,,,
6,5,{8}6,7-4[8:1],4-7[8:1],3,2,1,1,2-5[8:1],3,6q3[4:1],,4,,,,{16}3,4,{8}2,1V35[4:1],5,6,7,8,8,7v4[8:1],6,3>6[4:1],,5,,,,{16}7,5,{8}7,8-4[8:1],2-6[8:1],,,5,3,{16}2,4,{8}2,1>4[8:1],7<4[8:1],,,2,1,8p3[8:1]/7<4[8:1],,,,2>5[8:1]/1q6[8:1],,,,{16}7,8,,3,4,,12,,6,4,5,,{4}7-4[8:1]/3-8[8:1],
3b/7b,6-1[8:1]/2-5[8:1],2b/6b,7<4[8:1],3-7[8:1]/7,3/8-4[8:1],2-6[8:1]*-5[8:1]/8,2b,{16}8,,8,,17,,2,5,3,4,{8}3,2/5qq5[4:1]*pp5[4:1],,5x,,,3x/7x,3x/7x,,8-5[8:1]/4-1[8:1],37,4b/8b,,6-3[8:1]/2-7[8:1],,2b/6b,,5<8[8:1]/1>4[8:1],,15,,4qq8[4:1]*-7-5[4:1],,,,,,1,1,28,{16}3,5,4,6,{8}5,7>2[8:1]/3p6[8:1],,,,,1b/8b,{4}1b/8b,8-4[8:1]/6-4[8:1],68,3-5[8:1]/1-5[8:1],13,37,{16}18,,2,4,,6,4,,{2}3h[16:19]/7h[16:18],,,
{16}6,5,{8}6,4h[8:1]/7h[8:1],,2h[8:1]/5h[8:1],,3pp6[2:1],3,5,6,7,8,8h[4:1],,6,6,{16}7,5,{8}7,1-5[8:1],8-4[8:1],1,8,3,5,{12}26,26,26,{8}6>4[8:1]/2>4[8:1],17,2x/6x,,35,35,26,{16}7,7,1,,2,2,{8}8,37,2qq7b[2:1]/6,,8,7,6,5,4,,5,5,46,{16}7,7,5,,2,2,4,,35,,{4}4>1b[8:1]/6,4<7b[8:1],4-8b[8:1],4,26,
1<6[8:1]*>4[8:1]/C,1b,7-4[8:1]*-2[8:1]/C,7b,3p7[8:1]*>8[8:1]/C,3b,8-5[8:1]*-3[8:1]/C,8b,2>5[8:1]*-6[8:1]/C,2b,7V53[8:1]*p3[8:1]/C,7b,1<6[8:1]*>4[8:1]/C,1b,{8}8-5b[8:1]/2-5b[8:1],37,2b/8b,,{16}6,6,4,,2,2,4,,{32}3x/5x,,,3x/5x,,,3xh[16:3]/5xh[16:3],,{16},,,,26,,3,3,5,,7,7,{8}5,46,35,24,4<6[8:1]/2q6[8:1],,,,7p3[8:1]/5>3[8:1],,,,1x/2x,{16}3,4,,6,5,,8,1,7,,{4}6bv1[8:1]/2b-5[8:1],
2b/6b,7v4[8:1]/3>8[8:1],3b/7b,7q3[8:1]/1>3[8:1],7<5[8:1]/1p5[8:1],7q3[8:1]/1>3[8:1],7v4[8:1]/1v4[8:1],1b/7b,{8}35,47,15,{16}3,4,2-6[8:1],,6-2[8:1],,7,,8,,8h[8:1],,,1h[8:1]/7h[8:1],{8},35,26,,7q4[8:1]/3>8[8:1],26,3b/7b,,6<1[8:1]/2p5[8:1],,2b/6b,,8<5[8:1]/4>1[8:1],,8q4[8:1]/4q8[8:1],,8<5[8:1]/4>1[8:1],,48,,2bx/6bx,,1,1,37,{16}6,4,5-1[8:1],,1-5[8:1],,3,,4,,4h[8:1],,,3h[8:1]/5h[8:1],,,78,,{4}8-4[8:1]/7-3[8:1],8>7[4:3]/7<8[4:3],
D8f/A7/A8,,,,5/6<1[8:1],,3>8[8:1]/4,,{16}B2,B8,B4,B6,B1,B7,B3,B5,E2,E8,E4,E6,E1,E5,C,,D8,D7,{32}A2,D3,A3,D4,{16}A4,,D1/E1,,A2/B2,,{32}D7,A6,D6,A5,{4}D5,{16}2h[8:1],,8h[8:1],,2,8,1,7,8h[8:1],,6h[8:1],,8,6,1,7,2,8,5,6,1,7,3,4,2h[8:1],,,3h[8:1]/1h[8:1],,,48,,{4}4/8V64[4:1],4<2[4:1],,,8x/4hx[4:1],6h[2:1],{16}8,,8,,8xz4[4:3],1x,2x,3x,{2}4x,,
3>6[2:1],6>1[2:1],1<4[2:1],4v2<6[4:5],,,5z1[2:1]*s1[2:1],,{16}1h[16:3],,,2h[16:3],,,3,,7h[16:3],,,6h[16:3],,,5,,4h[16:3],,,3h[16:3],{8},2,1,8,7,6,4,4,46,46,35,35,26,26,{16}1,8,1,8,2,7,2,7,1,8,1,8,{32}1,2,3,4,5,6,7,8,{2}1bxh[2:3],,,{16}4-1[8:1],2,8,,{4}7x-3[8:1]/A4f,
1h[8:1]/7-1[8:1],4h[8:1]/7-5[8:1],3h[8:1]/7,{8}4<7[8:1]*>1[8:1],35,4w8[8:1],,4b,,2b/6b,,2-6[8:1]/1-5[8:1],38,{4}12,8-4[8:1]/7-3[8:1],78,6<1[8:1]/2>5[8:1],2-6[8:1]/6,7<4[8:1]/2<7[8:1],27,1bx/5bx,{16}78,,56,,47,,1,6,8,7,8,,{4}6>4[8:1]/1>3[8:1],16,2>5[8:1]/1<6[8:1],12,3/7-4[8:1],
17,{8}35,7,5-1[8:1],3,2-5[8:1]/5,,28,,46,3,1<6[8:1],2,1/4-8[8:1],,45,,17,5,3-7[8:1],2,1-6[8:1]/3,,14,,35,1,7-3b[8:1],6,2-5b[8:1]/7,1,26,,47,{16}6,6,{8}4-8[8:1],35,4/6-1[8:1],5,16,,24,{16}3,3,{8}5-8[8:1],4,2bq6[8:1]/5,1b,2/7-4[8:1],8,3-7[8:1],2,5-1[8:1],6,4qq4b[4:1]*pp4b[4:1],3,,,,,Ch[8:19],,{1},,,,,,,
E

Re:MASTER


名前:
コメント:

タグ:

+ タグ編集
  • タグ:
最終更新:2026年06月27日 17:12