| アーティスト |
ツミキ feat.音楽的同位体 可不(KAFU) |
BASIC
ADVANCED
EXPERT
(170)
{4}3/5,,4/6,,3/5,1,2,3,2/4,,5/6,,3/4,,6,5,4/6,,3/5,,4/6,8,7,6,5/7,,4/6,,3/4,3/4,3/4,3/4,5/6,5/6,5/6,5/6,
{8}4x,5x,4x,5x,4x,5x,4x,,
{4}3,2,1/8,7-5[8:1],,,3h[2:1],,B4/B5/E5,B6/B7/E7,B1/B8/E1,,3h[2:1],,6h[2:1],,B4/B5/E5,B2/B3/E3,B1/B8/E1,,
{2}6/5h[2:1],4h[2:1],3h[2:1],4h[2:1],5h[2:1],
{4}6,6,5,,
{2}4/5,3/4h[2:1],5h[2:1],6h[2:1],5h[2:1],4h[2:1],
{4}3,3/4,4/5,,7,8,1/7,1/7,2/8,2/8,1/7,1/7,1/8,,7/8,7/8,1/2,1/2,7/8,7/8,1/8,,3/4,3/4,5/6,5/6,3/4,3/4,4/5,,3/4,4/5,
{8}4x,5x,6x,,
{4}7/8,1/8,1/2,8h[4:1],1,1/2,
{8}3,3,3h[4:1],,
{4}4x,5/6h[4:1],7x,5/6h[4:1],7x,8<5[4:1],,,3/4,2,1/2,1h[4:1],8,7/8,
{8}6,6,6h[4:1],,
{4}5x,4/3h[4:1],2x,4/3h[4:1],2x,1>4[4:1],,,5/6,
{8}4x/5x,4x/5x,4x/5x,,
{4}1b/2b,3/4,7/8,
{8}6x,5x,4x,,
{4}3/5,2/4,1/3,
{8}1x,2x,3/4,,1/2,1x/2x,,6x/7x,,3xh[8:3]/4xh[8:3],,,,,
{4}5/6,7/8,3/4h[2:1],2x,1x,6/5h[2:1],7x,8x,3/4,
{8}8b/7b<4-1[4:3],{1},{8}3x,3x,,,2x,2x,,
{4}1/8,3/4,7/8,
{8}6x,5x,4x,,
{4}3/5,2/4,1,7bx/8bx,5/6,1bx/2bx,3/4,7bx/8bx,5/6,3h[4:1],4,
{8}3x,4x,5x,,
{4}6h[4:1],5,3h[4:1],4h[4:1],5h[4:1],6,7b/8b,5/6,3/4,1/2,7/8,5/6,4h[4:1],3h[4:1],2,E1,B7,A6,,E1,B2,A3,,A7,B6,E5,,A2,B3,E5,,A7/B7,A6/B6,A5/B5,,A2/B2,A3/B3,A4/B4,,B1/B8/E1,B3/B6/C,B4/B5/E5,,A1/A8/B1/B8,A2/A7/B2/B7,B3/B4/B5/B6/C,,8h[2:1],,2,3,4,5<4[1:1],,,,,,,4,4,5,5,5h[2:1],,3,2,1,8<1[1:1],,,,,,,1,1,8,8,1h[4:1],8,2,3,4,5h[4:1],4,3/4,2/4,5/6,5/7,3/4,2/4,1h[4:1],8,7,6,5h[4:1],4,4/5,
{8}4x/5x,4x/5x,4x/5x,4x/5x,4x/5x,,
{4}7b/8b,5/6,1/2,
{8}3x,4x,5x,,
{4}4/6,5/7,6/8,
{8}8x,7x,5/6,,7/8,7x/8x,,2x/3x,,5xh[8:3]/6xh[8:3],,,,,
{4}3/4,1/2,6/5h[2:1],
{8}8x,8x,8x,,3/4h[2:1],,1x,1x,1x,,5/6,,1b/2b>5-8[4:3],{1},{8}6x,6x,,,7x,7x,,
{4}1/8,5/6,1/2,
{8}3x,4x,5x,,
{4}4/6,5/7,8,1b/2b,3/4,7b/8b,5/6,1b/2b,3/4,6h[4:1],5,
{8}6x,5x,4x,,
{4}3h[4:1],4,6h[4:1],5h[4:1],4h[4:1],3,1b/2b,5/6,5/6,3/4,3/4,5/6,3h[4:1],4h[4:1],5h[4:1],6,6h[4:1],5,3h[4:1],4,5h[4:1],4,2>4[4:1]/7<5[4:1],,,,
E
MASTER
(170){1},
{8}6h[8:3],,,5,5h[8:3],,,4,4h[8:3],,,3,3h[8:3],,,4,
4h[8:3],,,5,5h[8:3],,,6,6h[8:3],,,5,5,,4,,
3h[8:3],,,4,4h[8:3],,,5,5h[8:3],,,6,6h[8:3],,,4,
4h[8:3],,,5,{4}5h[4:1],4,
4x/5x,4x/5x,4x/5x,4x/5x,3x/6x,3x/6x,3x/6x,3x/6x,
{8}2bx/7bx,2bx/7bx,2bx/7bx,2bx/7bx,2bx/7bx,2bx/7bx,2bx/7bx,,E2/B1,,E4/B3,,C,,E8/B7,,
E6/B5,,3,3,4,{16},2x/4x,{8},2x/4x,,5,5,4,4h[4:1],,6,,
46,,6,6,5,{16},5x/7x,{8},5x/7x,,4,4,5,{4}5,46,
1-5[4:5],,,,,,6,7,
8-4[4:5],,,,,,3,2,
24,{8},57,57,,,45,,45,,36,3h[4:1]/6h[4:1],,,,
47,,,25,25,,,1x/8x,{4}1x/8x,36,4x/5x,27,
6^3[8:1],2,2^7[8:1],6,6-4[8:1],1-5[8:1],6,46,
3^6[8:1],7,7^2[8:1],3,4z8[8:3],,{8},6x,{4}6x,
3^6[8:1],7,7^2[8:1],3,3-5[8:1],8-4[8:1],3,35,
6^3[8:1],2,2^7[8:1],6,5-8[8:1],1-4[8:1],8x,37,
A6/E5/B5/B6,{8}3qq4[8:3],3,{4}4,,A6/E5/B5/B6,7h[4:1],8,2h[4:1],
1,{8}3,3,5,,56,5p4[8:3]/6,,,,,,,26,,
A3/E5/B3/B4,,6pp5[8:3],6,{4}5,,A3/E5/B3/B4,2h[4:1]/8,5,1/7h[4:1],
4,{8}6,6,5,,34,34,,1x/8x,1x/8x,1x/8x,1x/8x,,2-5[8:1]/7-4[8:1],,
2x/7x,,36,,7,7,1,1,4,4,2-5[8:1]*-6[8:1],,,,7,7,
1,,35,35,,6<2v4[8:3],,4,,,,,1,1,{4}8-4[8:1],
2-6[8:1],7-3[8:1],1-5[8:1],6-3[8:1],2-7[8:1],5-8[8:1],4-1[8:1],8<2[2:1],
1xh[2:1],,,1-3[8:1]/8-4[8:1],1x/8x,1-5[8:1]/8-6[8:1],1x/8x,4,
34,12,{8}8,8,{4}1pp1[4:1],,,7-5[8:1]/8-4[8:1],7x/8x,
1-5[8:1]/2-4[8:1],1x/2x,7-5[8:1]/8-4[8:1],7x/8x,3,28,7h[4:1],5h[4:1],
4h[4:1],2h[4:1],8,3h[4:1],1h[4:1],8h[4:1],6h[4:1],4,
3b/4b,1b/2b,7b/8b,5b/6b,3b/4b,1bw5[4:1]/2b,,,
3x/7x,{16}6,,6,,4,,,35,{8},35,,2,2,4,34,,25,,
1,1,8,8<3[4:1],,3,,2h[4:1],,4,4-8[8:1],,1-5[8:1],,8x,,
47,,3,3,5,{16},46,{8},46,,7,7,5,56,,47,,
8,8,1,1V35[4:1],,6,,7h[4:1],,6x,5x,4x,{4}3x/6x,5<3[4:5],
4,4,4,4,4,4,4,3>5[4:5]/4,
4,4,4,4,4,4,4,4>6[4:5],
5,5,5,5,5,5,5,5/6<4[4:5],
5,5,5,5,5,5,5,4-1[2:1]/5,
5,5,5,1/5-8[2:1],1,1,1-5[8:1],8,
8-4[8:1],2,1-5[8:1],7,8,8<4[4:1],4>8[4:1],8<4[4:1],
4>8[4:1],8<4[4:1],4>8[4:1],8,{8}3,3,7,7,{16}1,8,1,8,1,8,1,8,
{8}1,,Cf/B3/B4/B5/B6,,1,1,8,8,5,5,7-3[8:1]*-4[8:1],,,,1,1,
8,,35,35,,6<2v4[8:3],,4,,,,,1,1,{4}8-4[8:1],
2-6[8:1],7-3[8:1],1-5[8:1],6-2[8:1],3-7[8:1],8-5[8:1],4-1[8:1],8<2[2:1],
1xh[2:1],,,1-5[8:1]/8-6[8:1],1x/8x,1-3[8:1]/8-4[8:1],1x/8x,5,
46,46,{8}3,3,{4}4pp4[8:3],,,1-5[8:1]/2-4[8:1],1x/2x,
7-5[8:1]/8-4[8:1],7x/8x,1-5[8:1]/2-4[8:1],1x/2x,6,18,2h[4:1],4h[4:1],
5h[4:1],7h[4:1],1,6h[4:1],8h[4:1],1h[4:1],3h[4:1],5,
46,46,35,35,{8}47,47,47,,25,25,25,,
6h[8:3],,,5,5h[8:3],,,4,,45,,3,3h[4:1],,{1}4^6[8:1],E
Re:MASTER
(170){4},,,45,
3/6h[2:1],{8},3,2h[2:1],,,4,5h[2:1],,,4,3h[2:1],,,5,
6h[2:1],,,3,2h[2:1],,,4,5h[2:1],,,4,4,,45,,
3h[2:1]/6,,,6,7h[2:1],,,5,4h[2:1],,,5,6h[2:1],,,4,
{4}4,35,57,1-5[8:1]/5,
1bx/8-4[8:1],2-6[8:1]/8bx,2bx/7-3[8:1],1-5[8:1]/7bx,1bx/8-4[8:1],2-6[8:1]/8bx,2bx/7-3[8:1],2/7bx,
{8}1bx-5[8:1],1bx,7bx-3[8:1],7bx,2bx-6[8:1],2bx,8bx-4[8:1],8bx,{4}2h[4:1],4h[4:1],5h[4:1],7h[4:1],
1-5[8:1],6h[4:1],{16}4,,,57,{8},57,,3,2,1,4,5,6,7,
8-4[8:1],,3h[4:1],,5,{16},46,{8},46,,37,37,2,1v4[8:1]/8v5[8:1],27,,,
{1}2h[2:3]/8h[2:3],,
{8}2^5[8:1],,,6,7^4[8:1],,,3,,1-5[8:1],,6,6,,5,,
46,,,24,24,,,35,,46,,57,5-1[8:1]/7,,8,,
18,,,24,24,,,56,5-2[8:1]/6,,8-4[8:1],,28,,1b/5b,,
6^3[8:1],,2,2,1-5[8:1],,8,8-6[8:1],,2,2-4[8:1],,5,5,46,,
3^6[8:1],,7,7,8-5[8:1],,4,4-1[8:1],,8,8h[4:1],,1,D8/A7/E8,D2/A2/E2,,
3-6[8:1],,8,8,7-2[8:1],,1,1^4[8:1],,8,8v5[8:1],,4,4,36,,
2^5[8:1],,7^2[8:1],,4^7[8:1],,1,1h[4:1],,8,8w4[8:1],,,,2x/6x,,
1x/7x,,2,4,5,{16}6,5,{8}7,48,48,,2^8[8:1]/5,,24,,2^8[8:1]/5,,
24,,5,6,7h[4:1],,5,5-2V48[8:3],,6,6,,7,1x/7x,1x/7x,,
2x/8x,,7,5,4,{16}3,4,{8}2,15,15,,4/7^5[8:1],,17,,4/7^5[8:1],,
17,,1,2,35,,6,6,,7b/8b,5b/6b,3b/4b,1b/2b,,2-5[8:1]/6-1[8:1],,
26,,3b/7b,,2,1,8^5[8:1],7,1^4[8:1],2,8w4[8:1],,,,3x/5x,2x/6x,
1x/7-3[8:1],,3,4^1[8:1],,4/5-7V13[8:3],,5,,4,4,,24,35,4^1[8:1]/6,,
4/7^4[8:1],,1-5[8:1]/7,,1/8^5[8:1],,3/8,3,{4}3/5-1[8:1],45,5-1[8:1]/8-4[8:1],5x/8x,
6h[4:7],5<4[4:1],,,{48}D8,A8,D1,A1,D2,A2,{8}D3,,,{48}D8,A8,D1,A1,D2,A2,{8}D3,5,5,
47,,3>7[8:1],,7>3[8:1],5,5,,6,7,28,,3^1[8:1]/7^5[8:1],,37,,
2^8[8:1]/6^4[8:1],,26,,1^7-2[4:1]/5^3-6[4:1],,15,,,,3x/7x,,2,2,{4}4<8[4:1],
8>4[4:1],4,8,2/6h[4:1],4h[4:1],2h[4:1],1,7-3[8:1],
4-1[8:1]/7,4/5-8[8:1],3-6[8:1]/5,3/7-2[8:1],47,15,{8}4-2[8:1]b/6-8[8:1]b,37,,,
2bx/8bx,,6,6,5/7h[16:3],{16},6h[16:3],{8},5,,4,3qq4[8:3],6,6,,5,,
7,8,1,2p5V31[4:1],,7,8,8h[4:1],,5,4,3,2^5[8:1]/6,7x,7x,,
48,,3,3,2h[16:3]/4,{16},3h[16:3],{8},4,,5,6pp5[8:3],3,3,,4,,
2,1,8,47,,2,1,1h[4:1],,8,18,45,27,,1>6[2:1],,
8,,8,,8,,8,5h[8:5],{4}8,8,8,8/E5,
8/E4,8/B6,8/B2,8/A1,8,8,8,2/8<3[2:1],
1,1,1,{8}1,4h[8:3],{4}1,1,1/4x,1/E5,
1/E6,1/B3,1/B7,1/A8,1,1,1,2/8^5[4:1],
3,3,4,4^1[4:1],6,7,7,8v3[8:1]b*v5[8:1],
,1-4[8:1]*-6[8:1]b,,8^3[8:1]b*^5[8:1],,2/6h[4:1],5h[4:1],8h[4:1],
1h[4:1],3h[4:1],7h[4:1],3,{8}48,48,15,15,26,37,4-1[8:1]/8-5[8:1],,
48,,2b/6b,,7,8,1^4[8:1],2,8^5[8:1],7,1w5[8:1],,,,4x/6x,3x/7x,
2-6[8:1]/8x,,6,5^8[8:1],,4v2<6[8:3]/5,,8,,,,,57,57,3/5^8[8:1],,
2^5[8:1],1,8-4[8:1],7,1^4[8:1],,6^1[8:1],5,4-8[8:1],3,{4}5,1-5[8:1]/4-8[8:1],1x/4x,
3h[4:7],4>5[4:1],,,{48}D2,A1,D1,A8,D8,A7,{8}D7,,,{48}D2,A1,D1,A8,D8,A7,{8}D7,4,4,
25,,6<2[8:1],,2<6[8:1],4,4,,3,2,{4}17,2^4[8:1]/6^8[8:1],2bx/6bx,
3^5[8:1]/7^1[8:1],3bx/7bx,4^6-3[4:1]/8^2-7[4:1],4bx/8bx,,2x/6x,{8}7,7,{4}5V31[4:1],
1V75[4:1],5,1,3h[4:1]/7,1h[4:1],8h[4:1],6,1v4[8:1]/5v8[8:1],
15,3-8[8:1]/7^4[8:1],37,2^5[8:1]/6^7-1[8:1],26,48,{8}26,26,2h[4:3]/6,,
4,,,6,7h[8:3],,,5,,45,,24,24,,{1}4qq2[8:1]/6^1[8:1],E
最終更新:2026年06月27日 12:22