BASIC
ADVANCED
EXPERT
MASTER
(170){8}1b,,2b^5[8:1],,6,6,7,8,
1,1,4,2h[4:1]/5,,7,8,8,5,4/7h[4:1],,2,2^5[8:1],8,8h[4:1],,
5,5,46,37,2,1,28,37,6,5,46,37,2^5[8:1]/8^5[8:1],,,,
6,6,5,4/7h[4:1],,2,1,1,4,2h[4:1]/5,,7,7^4[8:1],1,1h[4:1],,
4,4,35,26,7,8,17,26,3,4,5,4h[4:1]/5,,6,7V53[4:1],,
2,,1,1,8,,1-4[8:1]/7,,7,6,6,,5h[8:1]/7h[8:1],,5h[8:1]/7h[8:1],,
4/8V64[4:1],,3,3,2-6[8:1],,7,,8,8,{4}1-4[8:1]/7-4[8:1],,2qq7[2:1],
,6xqq3[2:1],,1,1h[2:3],,5,5,
4,2,8,4/7h[4:1],6h[4:1],2h[2:1],8h[4:1],,
2^5[8:1],{8},7^2[8:1],,,4h[4:1],,6,6,5,,4-1[8:1],,5,,
7^4[8:1],,,2^7[8:1],,,5h[4:1],,2,2,3qq4[8:3]/4,,6,7x,7x,,
8h[16:3],{16},6h[16:3],,,5,,1h[16:3],,,3h[16:3],{8},4,25,,1x,8x,7x-3[8:1],,4,4-1[8:1],
,5h[4:1],,1x,1x,,37,2^7[8:1],,6q3[8:1],,5,5,8x,8x,,
1V35[8:1]*V75[8:1],,,,3-8[8:1]/7h[4:1],,3,6^3[8:1],,1,1^6[8:1],,1^4[8:1],,1-5[8:1],,
1,,46,37,37,,2-4[8:1],,2/8-6[8:1],,1-5[8:1]/8,,17,8x,8x,,
1^6[8:1]/6-4[8:1],,1/6pp2[8:3],,2x,,4,4h[4:1],,3,3-7[8:1],,5-1[8:1],,4-8[8:1],,
6,,1,1,{4}28,4/7h[4:1],6h[4:1],2h[2:1],8h[4:1],,
8V24[8:1]*V64[8:1],,2h[4:1]/6-1[8:1],{8}6,3^6[8:1],,8,8^3[8:1],,8^5[8:1],,8-4[8:1],,
8,,35,26,26,,7-5[8:1],,1-3[8:1]/7,,1/8-4[8:1],,28,1x,1x,,
3-5[8:1]/8^3[8:1],,3qq7[8:3]/8,,7x,,5,5h[4:1],,6,6-2[8:1],,4-8[8:1],,5-1[8:1],,
3,,8,8,17,,46,,2^5[8:1]/8^5[8:1],1,,,3b/7b,8x,1x,,
2^7[8:1],,4,5^2[8:1],,7,8-4[8:1],,1,1,5,5,4-1[8:1],4,6,6,
7^2[8:1],,5,4^7[8:1],,2,1-5[8:1],,8,8,4-1[8:1],4-7[8:1],,,1,,
2^7[8:1],,4,5^2[8:1],,7,8-4[8:1],,1,1,5,5,3,3,34,,
25,,4/7h[4:1],,6h[4:1],,2h[4:1],,8,,,,6x,5x,4x,3x,
{4}2>7[4:3],8h[1:1],,,,5,{16}7h[16:3],,,6h[16:3],{8},5,
5^8[8:1],,3,3h[4:1],,4,25,,25,{16}3,4,3,4,2,,6,5,6,5,7<2[4:3],4,7,,
{1}1h[4:3],{16}4,,,28,,,46,,8,,,17,,,35,,
6,,,57,,,48,,4/8-4[8:1],,,,3xh[4:1],,,,6,,4,5,{8}4,36,36,27,1-4[8:1]/8-5[8:1],,
,,3/6h[4:1],,8h[4:1],,2h[4:1],,4,4,6,6h[4:1],,5-1[8:1],,8^5[8:1],
,1,1,2,36,4V61[4:1]/5V38[4:1],,,,,,1x/8x,1x/8x,,26,3^6[8:1]/7^2[8:1],
,,,1^6[8:1]/5^2[8:1],,,,3-6[8:1]/7-2[8:1],,37,,48,4/8h[4:5],,,5-1[8:1],
,,,1x,1xh[4:1],,,,E3/E4/B3,,E6/E7/B6,,4x,3x/5x,2x/6x,1x/7x,
8V24[8:1]*V64[8:1],,,,2h[4:1]/6-1[8:1],,6,3^6[8:1],,8,8^3[8:1],,8^5[8:1],,8-4[8:1],,
8,,35,26,26,,7-5[8:1],,1-3[8:1]/7,,1/8-4[8:1],,28,1x,1x,,
3-5[8:1]/8^3[8:1],,3qq7[8:3]/8,,7x,,5,5h[4:1],,6,6-2[8:1],,4-8[8:1],,5-1[8:1],,
3,,8,17,{4}26,4/7h[4:1],6h[4:1],2h[2:1],8h[4:1],,
1V35[8:1]*V75[8:1],,3-8[8:1]/7h[4:1],{8}3,6-2[8:1],,4,4^1[8:1],,4b^7[8:1],,4b-8[8:1],,
4b,,35,26,26,,1-3[8:1],,1/5qq8[2:1],,5/Cf,,,1x,1x,,
1^6[8:1]/6-4[8:1],,1/6pp2[8:3],,2x,,4,4h[4:1],,3,3-7[8:1],,5-1[8:1],,4-8[8:1],,
6,,1,1,28,,35,,1^4[8:1]/7^4[8:1],8,,,2b/6b,1x,8x,,
7^2[8:1],,5,4^7[8:1],,2,1-5[8:1],,8,8,4,4,5-8[8:1],5,3,3,
2^7[8:1],,4,5^2[8:1],,7,8h[4:1],,3,3,5-7[8:1],4-2[8:1],5-8[8:1],4-1[8:1],5,4,
7-2[8:1],,3-6[8:1]/7,,3/8-5[8:1],,4-1[8:1]/8,,4/5-8[8:1],,4v5[4:1]/5,3,8,8,{4}7,
36,4/7h[4:1],6h[4:1],2h[4:1],{1}8b,E
Re:MASTER
最終更新:2026年08月22日 16:50