BASIC
ADVANCED
EXPERT
(165)
{2},,
1>5[2:1],,
8V64[2:1],,
2h[2:1],4h[2:1],5h[2:1],7,
8p4[2:1],,2>6[2:1],,
7h[2:1],5h[2:1],4h[2:1],2h[2:1],
{4}E5,E4,E3,E2,E1,E8,E7,E6,Ch[1:1],,,,,,,,
7,7h[2:1],8,8,2,2h[2:1],1,1,
8,6,2,4-1[4:1]*-7[4:1],,,8,17,
2,2h[2:1],1,1,7,7h[2:1],8,8,
1,3,5,7<1[2:1],,,,,
1h[4:1]/7h[4:1],,26,26,3,34,5,56,
7,1,3,5,26,{8}7,7,{4}5,46,28,28,73,73,6,56,3,34,2,8,6,4,3h[4:1]/7h[4:1],,8b-4[4:1],,
{1}3h[1:1],1h[1:1],8h[1:1],{2}6,5,
{4}6,6,6h[2:1],,8,8,8h[2:1],,1,1,1h[2:1],,3,,4,4,
3b/5b,2,8,17,46,7,1,28,35,2,8,17,46,46,37,,
{6}2,2h[3:1],,4,4h[3:1],,6,6h[3:1],,8,8h[3:1],,{4}2,34,7,6<3[2:1]/5q4[2:1],,,,,
4b/6b,7,1,28,35,2,8,17,46,7,1,28,35,35,26,,
{6}7,7h[3:1],,5,5h[3:1],,3,3h[3:1],,1,1h[3:1],,{4}7,78,2,1q8[2:1]/2>7[2:1],,,,,
1b/6b,4,38,5,46,46,35,35,56,78,12,34,{8}2h[4:1]/5h[4:1],,,3h[4:1]/6h[4:1],,,47,,
{6}57,57,,24,24,,68,68,,13,13,,
28,28,28,37,37,37,26,26,26,17,17,17,
{2}8>4[2:1],,1V75[2:1],,6h[2:1],8h[2:1],1h[2:1],3,
1q5[2:1],,7<3[2:1],,24,57,
{4}36,{8}4x/5x,4x/5x,4x/5x,4x/5x,4x/5x,4x/5x,4x/5x,4x/5x,
{4}5x^8[2:1]b/4x^1[2:1]b,,,,2x/8x,{8}7,7,{4}5,35,17,{8}2,2,{4}4,46,28,{8}7,7,{4}5,35,17,17,26,,
{6}3,3h[3:1],,1,1h[3:1],,7,7h[3:1],,5,5h[3:1],,{4}3,12,6,7q6[2:1]/8>5[2:1],,,,,
1b/7b,
{8}2,2,{4}4,46,28,{8}7,7,{4}5,35,17,{8}2,2,{4}4,46,28,28,37,,
{6}6,6h[3:1],,8,8h[3:1],,2,2h[3:1],,4,4h[3:1],,
{4}6,56,3,4<1[2:1]/3q2[2:1],,,,,
{2}E3,E2,E1,E8,E7,{4}45,4qq2[4:1]/5pp7[4:1],,,,,,,,E
MASTER
(165)
{4},,,,3/6<1[4:1],1>4[4:1],4,,2<7[4:1]/5,7<4[4:1],4,,6>4[4:1],4>2[4:1],2q6[4:1],1,1,,3/5,2/6,1>4[4:1]/7,4<7[4:1],7,,7<4[4:1]/8,4>1[4:1],1,,2-6[4:1],6,7-3[4:1],4qq8[2:1],,,,{8},1x/7x,
{4}1xh[4:3]/7x,,B5,E4,8h[4:3],,B4,E6,{64}B2,C,B7,,,{4},{16},,{64},,,A4,E5,A5,,,{4},{16},,{64},,3xh[64:33],{1}6xh[2:1],
{4}2<7[4:1]/6,5,4,1/5,3/7>2[4:1],4,5,4/8,7-4[8:1],8x,2-5[8:1],1<6[4:1],,,5,6,5/6>3[8:1],2,8,1/5,3<6[8:1]/4,7,1,4/8,3-6[8:1],5x,7-2[8:1],4pp7[2:1]*qq1[2:1],,,,2/6,3/5,4-2[8:1]/6-8[8:1],4x/6x,
{8},2,2,,1/8,7,6,,5/7,,4<7[8:1]/6,3,2,,3q8[8:1],2,1,,7x/8x,,5/6,,6,5,4,,3/6,,2/4-8[8:1],1,8,,2,3,4/7,,5-1[8:1]/7,8,1,,7,6,{4}2/5,4/6,7/8-4[8:1],2-6[8:1]/8x,{2}2x,3/7,
{1}5qq5[2:1]*pp5[2:1],3qq3[2:1]*pp3[2:1],8qq8[2:1]*pp8[2:1],{4}A1/A8,B2/B7,E4/E6,A4/A5/D5,{16}2x/5x,,,1xh[16:9]/4p7[16:5],{4},,,{16}4x/7x,,,5xq2[16:5]/8xh[16:9],{4},,,{16}2x/5x,,,1xh[16:9]/4V27[16:5],{4},,,{16}7x/8x,,,5x/7x,,,4x/5x,,,2x/4x,,,{4}2x/4x,
1b/5b,{8}7/8,1,6<2[8:1]/2,,4/6x,,3,,1/2,8,3>7[8:1]/7,,3x/5,,6,,4/5,3,2,1,7/8,,7/8,,1,2,3/4,,5/6,,{6}7h[24:1]/8h[12:1],3h[24:1]/5h[12:1],2h[24:1]/1h[12:1],6h[24:1]/4h[12:1],7h[24:1]/8h[12:1],1x/2x,2h[24:1]/1h[12:1],6h[24:1]/4h[12:1],7h[24:1]/8h[12:1],3h[24:1]/5h[12:1],2h[24:1]/1h[12:1],7x/8x,{4}1-3[8:1]/7-3[8:1],1x/7x,8-6[8:1]/2-6[8:1],2x/8x,{16}1x/7x,,,3x/4x,,,{4}5x-1[8:1]/6x-2[8:1],{8}5b/6b,,,
{8}3b/4b,,2/7,6,1<6[8:1]/6,,1x/5,,6x,,1/7,2,3/8>3[8:1],,4/8x,,3x,,4/5,6,7,8,1,,3/4,,2-6[8:1],,6,,5/7,,{6}2h[24:1]/1h[12:1],6h[24:1]/5h[12:1],7h[24:1]/8h[12:1],3h[24:1]/5h[12:1],2h[24:1]/1h[12:1],7x/8x,7h[24:1]/8h[12:1],3h[24:1]/5h[12:1],2h[24:1]/1h[12:1],6h[24:1]/4h[12:1],7h[24:1]/8h[12:1],1x/2x,{4}3-1[16:1]/4-8[16:1],3bx/4bx,2/6,4<3[2:1]/5,8b,,,{8},3x/7x,
{6}3x/7x,8xh[6:1],2x,{48}2x,1x,,{16},,,{4}3/7,{16}2/8,,,1/7,,,{8}6/8,{4}6/8,1/7,{8}2h[4:1]/6,4,4,,3/7h[4:1],5,{4}5>1[4:1],8,{8}6,6,,3/5,3/5,,{6}1xh[24:1]/2xh[12:1],1xh[24:1]/2xh[12:1],1x/2x,3/8,4/7,5/6,8xh[24:1]/7xh[12:1],8xh[24:1]/7xh[12:1],8x/7x,1/6,2/5,3/4,{12}1b/2b,,6,5,7,,7b/8b,,3,4,2,,{2}1b-4[8:1]b/8b-5[8:1]b,2/7,
{1}5qq3qq1qq7qq5[4:13],,,,{4}2h[4:1]/5h[4:1],,3/4,3/4,4h[4:1]/7h[4:1],,5/6,5/6,3h[8:1]/6h[8:1],,4h[8:1]/5h[8:1],,1/8,{8}2/7,2/7,3/6,,5-8[8:1],1b,{4}1b,,{16}2,1,2,1,{4}3x/8x,3b/5b,
{8}3-8[8:1],8-4[8:1],{4}6<2[8:1],6x,4,{8}7-4[8:1],4-8[8:1],{4}2>6[8:1],2x,8,{8}8<5[8:1],5-1[8:1],{4}1>4[8:1],4,2,2/4-8[8:1],4x/5,2/6,{12}3/5,,2,4,1,,6h[24:1]/8h[12:1],,5h[24:1]/4h[12:1],,1h[24:1]/3h[12:1],,6/8,,7,5,8,,3h[24:1]/1h[12:1],,4h[24:1]/5h[12:1],,8h[24:1]/6h[12:1],,{4}8-3[8:1]*-5[8:1],8x,1-4[8:1]*-6[8:1],1x,{16}3/7,,,1/5,,,{4}2-5[8:1]b/6-1[8:1]b,{8}2bx/6bx,,,
3/7,,2-6[8:1],6-4[8:1],{4}8>4[8:1],8x,2x,{8}6-3[8:1],3-5[8:1],{4}1<5[8:1],1x,7x,{8}8<5[8:1],5>2[8:1],{4}2<7[8:1],E5,3,4-8[8:1]/5,4x/7,,{12}4/6,,7,5,8,,3h[24:1]/1h[12:1],,4h[24:1]/5h[12:1],,8h[24:1]/6h[12:1],,1/3,,2,4,1,,6h[24:1]/8h[12:1],,5h[24:1]/4h[12:1],,1h[24:1]/3h[12:1],,{4}7<5[8:1]/8p4[8:1],7bx/8bx,/1q5[8:1]/2>4[8:1],1bx<2[2:1]b/2bx,{1},{6}D8,D7,D6,A4/D4/D5,,,D2,D3,D4,A5/D5/D6,B4/B6,E3/E8,{4}2/8,2/7,3/6,4qq2[8:1]/5pp7[8:1],E
Re:MASTER
- 追加しました。曲の展開に合わせて都度改行を挟んでいます。(2026/01/22 01:22:35)
最終更新:2026年05月14日 00:54