BASIC
ADVANCED
EXPERT
MASTER
(172){8}
4,4,5,3,6,2,,17,,{16}2,3,{8}4qq1[8:3],6,6,7,7,8h[4:1],
,,17,17,,35,35,,57,57,,24,{6}2b/4b,5b/7b,1b/8b,
{8}2,2,4,4,3,3h[4:3],,4,4,4,5,5pp7[8:1],,,,,
6h[8:5],5,5,4,4,4,,46,{1}4-8V25[2:1]/6h[4:3],
{8}78,78,78,,12,12,12,,{16}3,4,3,4,{8}3qq4[4:1],,,,,,
2h[8:5],4,4,3,3,3,,12,1<4[4:1]/2,,4>7[4:1]b,,Cf,,,,
35,3h[8:1]/5h[8:1],,,35,3h[8:1]/5h[8:1],,,46,4h[8:1]/6h[8:1],,,46,4h[8:1]/6h[8:1],,,
57,5h[8:1]/7h[8:1],,,57,5h[8:1]/7h[8:1],,,A7/A8/E8f,,A5/A6/E6f,,A3/A4/E4f,,A1/A2/E2f,,
35,3h[8:1]/5h[8:1],,,35,3h[8:1]/5h[8:1],,,24,2h[8:1]/4h[8:1],,,2/4-6[8:1]b,24,,,
17,1,2,2,13,3,4,4,35,5,6,6,57,7,8,8,
{4}1^4[4:1]/7,4^7[4:1],7^2[4:1],2^5[4:1],5V71V35[2:1],,,E1,
{16}2h[8:1],,4,3,7h[8:1],,5,6-3[16:3],{8}3,3V57[4:1],2,1-5-2[4:1],,1,8,1w5[8:1],,1b,,3x/6x,
7-3[8:1],7,8-4[8:1],8,1-5[8:1],1,2-6[8:1],2,7p5[4:1],7,2b,,,{16}3x,4x,3x,4x,{8}3x,
1xv4[8:1]/5x,,1^6[8:1]/7,,1V35v2[8:3]/3,,7,6,,7,8,1^4[8:1]*V75[8:1],,1,,6,
6,5h[4:1]/7,,1,1,28,37,4h[8:1]/6h[8:1],,5v2[8:1]*v8[8:1],2V41[4:1]/8V61[4:1],,,,,,
7h[8:1],{16}5,6,2h[8:1],,4,3-6[16:3],{8}6,6V42[4:1],7,8-4-7[4:1],,8,1,8w4[8:1],,8b,,3x/6x,
2-6[8:1],2,1-5[8:1],1,8-4[8:1],8,7-3[8:1],7,2q4[4:1],2,7b,,,{16}6x,5x,6x,5x,{8}6x,
4x/8x-5[8:1],,2/8v3[8:1],,6/8V64v7[16:5],,2,3,,2,1,8q4[8:1]b*^5[8:1]b,,8,,,
56,8,34,1,46,8,35,1-5[8:1],8,17,8-4[8:1],1,2w6[8:1]/8,,2,,
1x/2x,38,47,1x/8x,27,36,7x/8x,16,25,3,4V26[4:1]/8V62[4:1],,48,,,,
(180)3bh[2:1]/7b,,1,1,1,,2b/4bh[2:1],,5,5,5,,
4b/6bh[2:1],,7,7,7,,6b/8bh[2:1],,1,1,1,,
1b/7bh[2:1],,5,5,5,5,5bh[2:1]/7b,,4,4,4,4,
4bh[2:1]/5b,,2,2,2,2,{6}17,28,13,24,35,46,57,58,47,36,25,1>8-2V46-8q1[8:15]/4,
{1},,{4},
(172)3h[4:1]/4h[4:1],,5h[4:1]/7h[4:1],,8-5[8:1],1xpp1[4:1],,,
2h[4:1]/3h[4:1],,5h[4:1]/6h[4:1],,3/4h[4:1],5p4[4:1],,,
2/4h[4:1],A8/E1,5h[4:1]/7,A1/E1,3/4h[4:1],A7/B7,5h[4:1]/6,2bh[8:9],
3b,{8},7bx,,,,1b<3[8:5]b,{1},{48}A3,D4,A4,D5,A5,D6,A6,D7,A7,D8,A8,D1,{4}A1,8b,
{16}17,,3,4,2,,6,5,{8}7v4[8:1],4V61[8:1],3,2-6[8:1],,2,1,2q6[8:1]/8p4[8:1],,28,,5x/7x,
8-4[8:1],8,7-3[8:1],7,6-2[8:1],6,5-1[8:1],5,4q6[4:1],4,2,,,{16}1xh,7xh,1xh,7xh,{8}1xh,
2x-4[8:1]/4x,5,2^8[8:1]/6,7,2-4[8:1]/6,5,2-6-4[4:1]/6,7,,1,8,3xv8[8:1]/7^4[8:1],,37,,4x,
4x,3-1v4>8[2:1]/5,,5,5,6,6,7h[8:1],,1V35[16:3]b/5V71[16:3],,1v6[8:1]/5v2[8:1]b,,,,,
2x/8x,{16}6,5,7,,3,4,{8}2v5[8:1],5V38[8:1],6,7-3[8:1],,7,8,1q5[8:1]/7p3[8:1],,17,,2x/4x,
1-5[8:1],1,2-6[8:1],2,3-7[8:1],3,4-8[8:1],4,5p3[4:1],5,7,,,{16}8xh,2xh,8xh,2xh,{8}8xh,
5x/7x-5[8:1],4,3/7^1[8:1],2,3/7-5[8:1],4,3/7-3-5[4:1],2,,8,1,2-5[8:1]/6xv1[8:1],,2b/6b,,,
78,6,45,3,12,3,45,6,78,56,34,12,7b^6-4[8:1]/8b^1-3[8:1],,7b/8b,,
2x/5x,{16}3,4,3,,26,,3,4,3,,27,,3,4,3,,28,,3,4,3,,1/2-6[8:1]b,,,,2b/6,,,,
47,,6,5,6,,37,,6,5,6,,27,,6,5,6,,17,,6,5,6,,7-3[8:1]/8,,,,3/7b,,,,
24,,1,8,1,,57,,8,1,{8}8,24,18,18,57,18,1-5[8:1]b/8-4[8:1],27,D1f/A1/A8,,,
3xh[2:1]/5xh[2:1],,,,,35,,4h[8:3:1]/6h[8:3],,,,3h[8:3]/7h[8:3],,,,2xh[4:1]/8xh[4:1],
,,28,1h[8:1],,1,2h[8:1]/5h[8:1],,25,4h[8:1]/7h[8:1],,47,
(180){6}5h[12:1]/6h[12:1],6h[12:1]/7h[12:1],7h[12:1]/8h[12:1],1h[12:1]/8h[12:1],1h[12:1]/2h[12:1],2h[12:1]/3h[12:1],
3h[12:1]/4h[12:1],5h[12:1]/7h[12:1],1h[12:1]/8h[12:1],2h[12:1]/4h[12:1],6h[12:1]/8h[12:1],1h[12:1]/5h[12:1],{4},
{1}Cf/A3/A7/B3/B7,,E
Re:MASTER
最終更新:2026年02月23日 02:15