BASIC
ADVANCED
EXPERT
MASTER
(121)
{2}2>4[16:3],7<5[16:3],1>4[4:1],8<5[4:1],2q6[4:1],7p3[4:1],1-5[16:3],6h[16:3]/4h[8:1],
{4}5h[2:1],E5,3h[2:1],E4,7h[2:1],E6,5-3[8:1],E7,2h[2:1],E4,6h[2:1],E6,4h[2:1],E5,7-5[8:1],C,
{16}2h[16:3],,,3h[16:3],,,4,,6h[16:3],,,5h[16:3],,,4,,1h[16:3],,,2h[16:3],,,3,,
{4}3h[16:3]/4-8[8:1],,
{16}7h[16:3],,,6h[16:3],,,5,,3h[16:3],,,4h[16:3],,,
{8}5,2/6,8,3/7-3[8:1],1,7/2-6[8:1],,7/2,,8b/1b,
{8}7<4[8:1],8,7x/1,3x,2>5[8:1],1,2x/8,6x,8/1,2,3x/4,5/6x-1[8:1],,6bx/5bx,,3x,
{8}7<4[8:1],8,7x/1,3x,2>5[8:1],1,2x/8,6x,7/8,3x,1/2,5x/4x,
{16}8x/1x,7x/2x,
{4},
{8}3h[4:1],4,5,4/6,7h[4:1],5,4>1[8:1],,5,6,7<4[8:1],,8,1,2/3,,
{8}6h[4:1],5,4,5/3,2h[4:1],4,5<8[8:1],,4,3,2>5[8:1],,1,8,7/6,,2,2,8,8,
{16}1h[8:1]/7h[8:1],,,1/7,,,3/4,,8h[8:1]/2h[8:1],,,2/8,,,6/5,,
{8}7h[16:3]/1>6[16:3],,,,7,7,1,1,
{16}8h[8:1]/2h[8:1],,,2/8,,,
{8}6/5,1,3/4,8<3[16:3],2,2,1x,8x/2x,,
{16}5h[8:3]/6h[16:1],,,7h[16:1],,,8,,4h[8:3]/3h[16:1],,,2h[16:1],,,1,,
{16}2h[16:1]/3h[16:1],,,3h[16:1]/4h[16:1],,,4h[16:1]/5h[16:1],,,5xh[16:1]/6xh[16:1],,,6xh[16:1]/7xh[16:1],,,,
{16}5h[8:3]/8h[16:1],,,7h[16:1],,,6,,4h[8:3]/1h[16:1],,,2h[16:1],,,3,,
{16}1x/8x,1/8,,,3x/2x,3/2,,,5x/4x,5/4,,,
{4}7x/6x>7[2:1],Cf,,,2/6,
{16}3/4,,1/2,1/2,,6/5,,8/7,8/7,,3/5,,2b/6b,,,,
{8}3x/7x-3[8:1],1,8/7,{16}2,2h[16:3],,,{8}1,3/4,5/6,
{16}8/7,1x/6x,,8/7,1x/6x,,8/7,1x/6x,,,3,,3/4,,2,2,
{8}1,8/3,4/5,{16}7,7,{8}8,1/6,5/4,8/3,1,8/2,
{16}6/5,6/5,,7b/3b,,,
{8}8/7,6/5,3/4,1/2>5[8:1],8,7,6,8/7<4[8:1],1,2,3,
{16}1/2,3x/8x,,1/2,3x/8x,,1/2,3x/8x,,,2bx/1bx,,6,6,
{8}5,7-5[8:1]/4-8[8:1],7/4,,,2-4[8:1]/5-1[8:1],2/5,,,
{8}8/7,1/2,7/5,2/4,5b<4[2:1]/4b>5[2:1],,
{4},,,4h[4:1],
{16}5,,,B2,,B6,,4x,
{4}4x,5h[4:1],E5/B4,3h[4:1],E5/B5,6h[4:1],
{16}E5/B4,,,B7,,B3,,5x,5x,,,,
{8}1,1,2,2,3-8[8:1],3,7-4[8:1],7,3,3,3,{16}3,4,,4,3,,2/5,,,,
{8}7,6,2,3,4-1[8:1]/8-5[8:1],,,,6,6,6,{16}6,5,,5,6,,7/4,,,,
{16}3,,4,,3/5,,,2h[8:1],,3h[8:1],,4,4,,,,6,,5,,6/4,,,7h[8:1],,6h[8:1],,5,5,,,,
{16}4,,5,,4/3,,,6/5,,4/5,,4/3,
{4}4-8[8:1]/3-1[8:1],,5-1[8:1]/6-8[8:1],,4>5[4:5],,{1},
{16},,,{64}A7,B7,C,B3,{4}A3,
{16},,,1xV35[8:1]b/2x>5[8:1]b,,,8/7,,,,,8xV64[8:1]b/7x<4[8:1]b,,,1/2,,,,,,
{16}1/2,7x/3x,,1/2,7x/3x,,1/2,7x/3x,,,6/5,,4/3,,2,2,
{8}1>4[8:1],8,7,{16}6,6,
{8}5<8[8:1],4,3,2,8/1,2/4,{16}7/5,7/5,,6b/2b,,,
{8}1/2,3/4,6/5,8/7<4[8:1],1,2,3,1/2>5[8:1],8,7,6,
{16}8/7,6x/2x,,8/7,6x/2x,,8/7,6x/2x,,8bx/7bx,,,3x,4x,,6x,
{8}5x,7/4,8<5[8:1],8,1>4[8:1],1,8,6,7/5,2/4,3/6,
{16}1/8,8/1w5[8:1],,,,,Cf,,,,
{2}7h[2:1],6h[2:1],5h[2:1],4h[2:1],3h[2:1],2h[2:1],1h[2:1],
{4}8w4[8:1],8b,1x-5[8:1]b/2x-4[8:1]b,E2f,1x-7[8:1]b/2x-6[8:1]b,E2f,
{4}1b/2b>6[4:1]b,6b<2[4:1]b,E2f/B2/B1,,
{8}7-3[8:1],8,7,1,2-6[8:1],1,2,8,8/7,1/2,7/5,2/4,4/5,
{16}1/8,1/8-5[16:21],,,,,
{4}4,4,4,4,4,4,
{8}E5,,,5/4,Cf/E7/B7/E8/B8/E1/B1/E2/B2/E3,
E
Re:MASTER
最終更新:2026年02月19日 23:26