アットウィキロゴ

てらてら

アーティスト 和田たけあき

BPM BASIC ADVANCED EXPERT MASTER Re:MASTER
190 3 7 10 13 -

EXPERT MASTER Re:MASTER
譜面制作者 みそかつ侍 アマリリス -

BASIC


ADVANCED


EXPERT


MASTER

(190)
{1},
{8}6/2h[4:1],,4,4,,,3/5,,3/7h[4:1],,5,5,,,4/6,,6/2h[4:1],,4,4,,,3/5,,3/7h[4:1],,5,5,,,
{4}4/6,4/2-4[8:1],,7-5[8:1],,4,2/4,5,5/7,4q5[2:1]/8h[4:1],,7h[4:1],,
{8}6,6,5/7,5/7,5/7,,
{4}3xb/8xb,1/2-5[8:1],7,
{8}6,4/6,,5/3h[4:1],,
{16}E1,E8,E7,,
{8}2,2,8,1/7,,8/7-4[8:1],,2,,3,3/5,,4/6h[4:1],,
{16}E1,E2,E3,,
{8}7,7,1,2/8,,4/3-8[8:1],,8,,6,5/7,,5/3h[4:1],,
{16}E1,E8,E7,,
{8}2,2,8,1/7,,5/6-1[8:1],,3,,2,2/8,,5-1[8:1]/7-5[8:1],,5xb/7xb,,2x/6x,2xb/6xb,,,,3/5,,2,2,4h[4:1],,3,,2,,4,4,3,,4/5,,4/6,,7,7,5h[4:1],,6,,7,7,8,,2,2,1-6-2-5[2:1],,,,,,
{4}3,3/4,2,
{8}8,8,1,,
{4}7/8,6-4[8:1],4x,2-4[8:1],4x,6^3[4:1],3x^6[4:1],,,7/5h[4:1],6,
{8}2,2,4,3,,2/4,,1/3,,2,2,8,1,,7/8,,5/6,,4,3/5,,1/2,,3/8,3/8,,
{4}4,7^5[4:1],5^3[4:1],3^1[4:1],1^6[4:1],6^3[4:1],3,
{8}1,1,,2/8,,,
{4}3-8[8:1],7-4[8:1],2-7[8:1],6-3[8:1],
{8}8,1,,3/7,3/7,,
{4}6h[4:7],B6,B8,B2,B4,B6,B8,B2,3h[4:7],E3,E1,E7,E5,E3,E1,E7,
{8}5x/6x,6,6,6,6x/8x,6,6,6,3x/6x,3,3,3,1x/3x,3,2b/7b,,1/8,,6,5/7,,3,2/4,,7,7,5,5,4,,3/6,,4/5,4/5,4/5,3b/6b,,,5-1[8:1]*-8[8:1],,5x,,2,2,8,4,4,1-5[8:1],,1x/5x,,3b/7b,3b/7b,,3/4-1[8:1]*-8[8:1],,4x,,7,7,1,5,5,8-4[8:1],,4x/8x,,2b/6b,2b/6b,,4/5,,7,7,8-2[8:1],8,6-4[8:1],6,3-7[8:1],3,,6h[4:1],,8,8,,4/6,,5^8[8:1],,3,4,4^1[8:1],,6,5,5^8[8:1],,3,2,2h[2:1],1x,1x,1x,1x-5[8:1],,1x/3x,,2,6,5,1/4-8[8:1],,4x/8x,,2b/6b,2b/6b,,3/4^7[8:1],,2x/4x,,3,4,8,4,5,1w5[8:1],,1x,,3b/7b,3bh[4:1]/7bh[4:1],,,,1-6[8:1]/2-5[8:1],,1/2,,4,4,5,3p7[4:1],,7p3[4:1],,5,5,,C,,7,7,1,2,8,8,2,3,1,1,1/5,1/5,1x/5x,,
{4}3/7-4[8:1],,,
{16}4/5,,3,4,3,,6,5,6,,3,4,3,,
{8}6,6,4/5,,2/8,,3,3,4h[4:1],,1,2,3,6,5/7,,1-4[8:1]/8-5[8:1],,1/8,,,
{4}3/6,4/5,2-4[8:1],1-5[8:1],2-4[8:1],1-5[8:1],2V46[4:1],6V82[4:1],2,6,7,3^1[8:1],3,
{8}5,5^8[8:1],,5^3[8:1],,5,,,
{4}2/8,7-5[8:1],8-4[8:1],7-5[8:1],8-4[8:1],
{8}7,7h[4:1],,3,,2/8,,4/6,4/6,,3^1[8:1],,3,,5,5-3[8:1],,5/7-5[8:1],,1,1,,
{4}4/6,2-4[8:1],8-6[8:1],1-5[8:1],7-3[8:1],1<1[2:1]*>1[2:1],,,,,2-7[8:1],2x/5x,
{8}6,4/5,,3,3,2/4,,1/8,1/8,,4x/6x,6,6,6,6x/8x,6,6,6,2x/6x,2,2,2,2x/4x,2,1b/5b,,2-6[8:1],,8,8-4[8:1],,1,1,,3,3,1,1,8,,2/7,,4/5,4/5,4/5,6b/3bh[4:1],,
{16}E6,B5,B4,,,,{2},
{8}2/5,,B2,B5,,,3/4,,2/5,,B2,B5,,,3/4,,4/7,,B7,B4,,,5/6,,4/7,,B7,B4,,,
{4}5/6,7^5[4:1],5v4[4:1],4^2[4:1],2,
{8}1,1,2/8,,7,7,6/8,,5^8[8:1],,3,3,4^1[8:1],,6,7,8,8,1/7,1h[4:1]/7h[4:1],,,
{4}E1/E8f,3/4,6b/1bV35[4:1],
{8}6,7,8,1x-6[8:1]/5x-2[8:1],,1x/5x,,3b/7b,3b/7b,,
{4}1/2,3/5,4/8V64[4:1],
{8}3,2,1,4x-7[8:1]/8xv3[8:1],,4x/8x,,2b/6b,2b/6b,,
{4}7/8,2-6[8:1]/6-2[8:1],2/6,
{8}8,8,4,4V68[4:1],,8V24[4:1],,4,4,,8,,3,3,5,6,4,4,7,8,5,5,1/5,1/5,1x-6[8:1]b/5x-2[8:1]b,,
{4}1b/5b,3b/7b,,1/2-5[8:1],7,
{8}6,5/7,,5/3h[4:1],,
{16}1x,8x,7x,,
{8}3,2,1,7/8,,5/6-1[8:1],,1,,3,2/4,,4/6h[4:1],,
{16}7x,8x,1x,,
{8}6,7,8,1/2,,8/7-4[8:1],,2,,3,2/4,,4/6h[4:1],,
{16}8x,1x,2,,
{8}6,7,8,1/2,,5/6-1[8:1],,3,,2,2/8,,1-5[8:1]/8-4[8:1],,1xb/8xb,,2b/7b,2b/7b,
E

Re:MASTER


名前:
コメント:

タグ:

+ タグ編集
  • タグ:
最終更新:2026年07月18日 15:43