BASIC
ADVANCED
EXPERT
MASTER
(186)
{4}2/4,5/6,3/4,5/7,
{4}1/2,7/8,4/6,3b/7b,
{8}2h[4:1],,4,,6,6h[4:1],,4,
{8},3,3h[4:1],,1h[4:1],,8h[4:1],,
{8}6h[4:1],,5,,2,2h[4:1],,1,
{8},3/4,3/4,,4/5,,3/6,,
{8}7h[4:1],,5,,3,3h[4:1],,5,
{8},6,6h[4:1],,8h[4:1],,1h[4:1],,
{8}3h[4:1],,4,,7,7h[4:1],,8,
{8},5/6,5/6,,4/5,,3/6,,
{4}5/7,4/5,2/4,5/4pp1[2:1],
{4}5,,8x,1x/8x,
{4}5/7,5/7,5/7,6/7,
{4}1/8,2v5[8:1]/7-2[8:1],,,
{2}4h[4:1]/6h[4:1],3h[4:1]/5h[4:1],
{4}4/6,2/5,4/7,3-6[8:1]/5h[4:3],
{8},,,,8x,,,3/6,
{8},2/7,2v5[8:1]/7-2[8:1],,,,,,
{2}8/7-5[8:1],1/2-4[8:1],
{4}8/7qq4[2:1],8,,1bx,
{4}2/4,2/4,2/4,2/3,
{4}1/8,2v5[8:1]/7-2[8:1],,,
{2}7/8-5[8:1],2/1-4[8:1],
{4}3h[4:1]/5h[4:1],,4/6,3b/7b,
{4}2h[4:1],4h[4:1],5h[4:1],7,
{4}2h[4:1]/8-4[8:1],,1bx/2bx,3b/8b,
{4}7h[2:3],,E5,E6,
{4}E7,E8,E1,3/5,
{4}2h[2:3],,E5,E4,
{4}E3,E2,E1,4/6,
{4}7h[2:3],,A5/E5,B6,
{4}A8,D2,B3/B4,5<8[4:1],
{4},1>4[4:1],,8,
{4}4h[8:1]/7h[8:1],3h[8:1]/6h[8:1],2h[8:1]/5h[8:1],1/4,
{4}2h[8:1]/5h[8:1],3h[8:1]/6h[8:1],4h[8:1]/7h[8:1],8b,
{4}1-5[8:1]/2-4[8:1],1x/2x,7-5[8:1]/8-4[8:1],7x/8x,
{8}1/2,,2v5[8:1]b/8-2[8:1]b,,2x/8x,,,7,
{4}7h[4:1],5h[4:1],3h[4:1],1<5[4:1],
{4}5>1[4:1],1,,3bx/7bx,
{4}7-5[8:1]/8-4[8:1],7x/8x,1-5[8:1]/2-4[8:1],1x/2x,
{8}7-1[8:1]b,,2-4[8:1]b*-6[8:1]b,,,,,7,
{4}7h[4:1],5h[4:1],3h[4:1],1,
{4}1h[8:1]/7h[8:1],3h[8:1]/5h[8:1],2/6,3-8[8:1]/7-4[8:1],
{4},2-5[8:1]/6-1[8:1],,3-8[8:1]/7-4[8:1],
{4},2-5[8:1]/6-1[8:1],,3/7,
{4}2-4[8:1],8-6[8:1],1-5[8:1],6,
{4}7,1-5[8:1]/8-4[8:1],1x/8x,2-5[8:1]/6-1[8:1],
{4},3-8[8:1]/7-4[8:1],,2-5[8:1]/6-1[8:1],
{4},3-8[8:1]/7-4[8:1],,2/6,
{4}3-6[8:1],7-2[8:1],3,4,
{4}3h[8:1]/5h[8:1],2h[8:1]/6h[8:1],3h[8:1]/5h[8:1],3/5,
{4}2h[8:1]/6h[8:1],1-5[8:1]/7-3[8:1],1x/7x,2bx/6bx,
{8}7h[4:1],,5,,3,3h[4:1],,5,
{8},6,6h[4:1],,8h[4:1],,1h[4:1],,
{8}3h[4:1],,4,,7,7h[4:1],,8,
{8},5/6,5/6,,1/8,,3/6,,
{8}2h[4:1],,4,,6,6h[4:1],,4,
{8},3,3h[4:1],,1h[4:1],,8h[4:1],,
{8}6h[4:1],,5,,2,2h[4:1],,1,
{8},3/4,3/4,,1/8,,6/3h[4:1],,
{4}5,2>5[8:1]/6<1[8:1],,,
{8}4b-2[8:1]b/5b-7[8:1]b,,,,1b/8b,1b/8b,,6h[4:1],
{8},5,5pp2[2:1],,,,,,
{4}8h[4:1],2,3/7,1>5[4:1],
{4}5<1[4:1],1>5[4:1],5,1,
{8}4b-2[8:1]b/5b-7[8:1]b,,,,1b/8b,1b/8b,,3h[4:1],
{8},4,4qq7[2:1],,,,,,
{4}1h[4:1],7,2/6,8<4[4:1],
{4}4>8[4:1],8,4,8z4[2:1],
{8},,,,,,,3xh[2:1]/6xh[2:1],
{4},,A4/A5/E4/E5/E6,7x,
{2}4h[8:3]/6h[8:3],3h[8:3]/5h[8:3],
{4}4/6,5/7,6/8h[4:5],,
{2}A6/A7/D7,A2/A3/D3,
{8}3>8[8:1]/7<4[8:1],,,,,1b/5b,1b/5b,,
{4}6h[1:1],5,5,5,
{4}3h[4:3],4,4,4,
{8}2/5,2/5,,,4/7,4/7,,7/8,
{8}7/8,,1/8,,1/2,,,4/6,
{4}4/6,6/8,2-6[8:1]b/8-4[8:1]b,,
{4}7-4[8:1]/8-3[8:1],7x/8x,1-6[8:1]/2-5[8:1],1x/2x,
{8}7/8,,2v5[8:1]b/8-2[8:1]b,,2b/8b,,,7,
{4}7h[4:1],5h[4:1],3h[4:1],1<5[4:1],
{4}5>1[4:1],1,,3bx/7bx,
{4}7-4[8:1]/8-3[8:1],7x/8x,1-6[8:1]/2-5[8:1],1x/2x,
{8}7-1[8:1]b,,2-4[8:1]b*-6[8:1]b,,,,,7,
{4}7h[4:1],5h[4:1],3h[4:1],1,
{4}2h[8:1]/5h[8:1],3h[8:1]/6h[8:1],4/7,2-5[8:1]/6-1[8:1],
{4},3v8[8:1]/7-4[8:1],,2-5[8:1]/6-1[8:1],
{4},3-8[8:1]/7v4[8:1],,2/6,
{4}7-5[8:1],1-3[8:1],8-4[8:1],3,
{4}2,1-5[8:1]/8-4[8:1],1x/8x,3-8[8:1]/7v4[8:1],
{4},2-5[8:1]/6v1[8:1],,3v8[8:1]/7-4[8:1],
{4},2v5[8:1]/6-1[8:1],,3/7,
{4}6-3[8:1],2-7[8:1],6,5,
{4}4h[8:1]/6h[8:1],3h[8:1]/7h[8:1],4h[8:1]/6h[8:1],4/6,
{4}3h[8:1]/5h[8:1],2h[8:1]/6h[8:1],3h[8:1]/5h[8:1],3/5,
{4}4h[8:1]/6h[8:1],3h[8:1]/7h[8:1],3h[8:1]/5h[8:1],2h[8:1]/6h[8:1],
{4}2h[8:1]/8h[8:1],3h[8:1]/7h[8:1],1h[8:1]/7h[8:1],2h[8:1]/6h[8:1],
{4}1b-5[8:1]/7b-3[8:1],1bx/7bx,2/6,,
{8}7h[4:1],,5,,3,3h[4:1],,5,
{8},4/6,4/6,,7-3[8:1],,1-5[8:1],,
{8}6h[4:1],,4,,7,7h[4:1],,8,
{8},5/6,5/6,,1-5[8:1]/8-4[8:1],,,,
{8}2h[4:1],,4,,6,6h[4:1],,4,
{8},3/5,3/5,,2-6[8:1],,8-4[8:1],,
{8}3h[4:1],,5,,2,2h[4:1],,1,
{8},3/4,3/4,,1-5[8:1]/8-4[8:1],,,,
{2}3h[4:1]/6h[4:1],{16}1,8,1,8,2-6[8:1],,,,
{1}2bx,
E
Re:MASTER
(186){1},
{16},,,,,,,,,,,,4,5,4,5,
{16}4bx,,3,,2bx/4,,5,,4/6bx,,6,5,7bx,,8,,
{16}1/8bx,,1,8,2bx,7,3,6,4bxh[4:1],,,,8b,,,,
{8}7h[4:1],,5h[4:1],,6,6,,4/5,
{16},,4,5,3,,6,5,7,,3,4,2h[4:1],,,,
{8}7<4[8:1],,1,,2,2,,3/4,
{16},,3,4,2,,5,4,6,,3,4,2h[4:1],,,,
{8}8h[4:1],,5h[4:1],,6,6,,4/5,
{16},,5,4,6,,3,4,2,,6,5,7h[4:1],,,,
{8}2>5[8:1],,8,,7,7,,4/6,
{16},,3,4,2,,6,5,7,,1,8,1-5[8:1],,,,
{8}7b,,7,,5/6,,4,4,
{8}5,3,5,2,2/4,,1x/8x,,
{8}B4/B6,,B3/B5,,2,2h[4:1],,1,
{8},8,8-2[8:1]*-6[8:1],,,,3xV17[4:1],,
{8}4,,6V82[4:1],,5,,3,3,
{8}5,4,7,5,6>3[8:1],,4bx,,
{8}C1h[4:3],,,,,,8x,8x,
{8},1/2,2/1-7[8:1]*v4[8:1],,,,3x/6x,,
{16}4/5,,3,4,2,,2,,8,,8,,5,,5h[4:1],,
{16},,7,,7,,4/6,,4/6,,3,4,3h[4:1],,,,
{16}5,,5,,4,,6,,4/7,,4/7,,6,5,6h[4:1],,
{16},,8,,1,,2,,3/5,,6,5,7,,7,,
{16}4/6,,3,4,2,,2,,7,,7,,5/6,,5h[4:1]/6,,
{16},,7,,7,,4/6,,4/6,,3,4,3h[4:1],,,,
{16}5,,5,,4,,6,,4/7,,4/7,,6,5,6h[4:1],,
{8},5,5/6,4/5,4/3-8[4:1],,8b>2-4[8:3],,
{8}7,,7,,5,5h[4:1],,4h[4:1],
{8},6,5,4,3>8[4:1],,5,,
{8}7,,7,,5,5h[4:1],,4,
{8}3,2,5,4,3<6[4:1],,E5,,
{8}8,,8,,7,7h[4:1],,5h[4:1],
{8},6,5,4,3-5[8:1]/6-4[8:1],,,,
{8}3x/6x,,5,4,3h[4:1],,5,5,
{8}2/6,3/5,2/6,3/5,2/6,,3,3,
{8}2/8,3/7,2/8,3/7,2/8,,1-5[8:1]/7-4[8:1],,
{16}1b/7b,,,,1>4[8:1],,8,,1/7,,6,6,5,,7/8,,
{16}1/6,,3,3,4>1[8:1]-7[8:1],,5,,4b/6b,,,,6,,6,,
{8}5/7,8,1/7,2,3/8,4/7,8V64[8:1],4>4b[16:5],
{4}8b,B1/B2/E2f,,3>1[8:1]/8-4[8:1],
{16}3b/8b,,,,8<5[8:1],,1,,2/8,,3,3,4,,1/2,,
{16}3/8,,6,6,5<7V13[16:5],,4,,3b/5b,,,,4,,4x,,
{8}3/5,2,1/7,6,2/8,3h[4:1]/7,,5,
{8}2v5b[8:1],1,6>3b[8:1],7,2h[4:1],,1b,,
{8}2/8,8,8/6-2[8:1]-4[8:1],8,6/8,8,8,7-5[8:1],
{16}4-8[8:1],,7,,4,,7,,1b,,,,2/8,,3,4,
{16}2h[8:1],,7,8,6h[8:1],,4,5,3,,2-6[8:1],,8-4[8:1],,2,,
{8}8,1-5[8:1],7-3[8:1],1,7,,2b/8b,,
{8}1/7,1,1/3-7[8:1]-5[8:1],1,1/3,1,1,2-4[8:1],
{16}5-1[8:1],,2,,5,,2,,8b,,,,1/7,,6,5,
{16}7h[8:1],,2,1,3h[8:1],,5,4,6,,7-3[8:1],,1-5[8:1],,7,,
{8}1,8-4[8:1],2V46[16:3],8,2,,7-3b[8:1],4-8b[8:1],
{8}7,4,6-8-2-4[16:5],1,6b,,,,
{8}4x/6,,3/5,,2,2h[4:1],,5h[4:1],
{16},,4,5,3,,4,5,3-1b[8:1],,4,5,3,,,,
{8}7v4[8:1],,1,,2,2h[4:1],,5h[4:1],
{16},,3,4,2,,3,4,2-6b[8:1],,3,4,2,,,,
{8}7h[4:1],,5h[4:1],,6,5/6,,4/5,
{16},,5,4,6,,5,4,6-8b[8:1],,5,4,6,,,,
{8}2v5[8:1],,8,,7,7h[4:1],,5,
{16},,4,5,3,,4,6,2,,4,7,1,,,,
{32}2bxh[2:1]/8x,,,,,,,,,,,,,,,,D5,D6,D7,D8,D1,D2,D3,D4,D5,,,,,,,,
{8}6h[4:1]/5x-1[8:1],,5bx,,2/8,2/8,,3h[4:1]/4,
{8},5,5<1[4:1],2,1>5[4:1],,5,,
{8}1,,3,3,6,7/5p8[4:1],,8p4[4:1],
{8},4>1[4:1],,6,,7,7h[4:1],,
{8}5x-1[8:1],,5bx/6,,2/8,2/8,,3h[4:1]/4,
{8},5,5>7[8:3],2,1<5[4:1],,5,,
{8}1,,6,6,3,2/4q1[4:1],,1q5[4:1],
{8},5<8[4:1],,3,,1,1V74[8:5]*V36[8:5],,
{8},,,,,,,3bh[8:5]/7bh[2:1],
{4},,,4/6,
{2}C1/B5/7h[4:1],B1/B8/2h[4:1],
{4}5/6,2/4,4/8h[2:1],3x-6[4:1]-3[16:5],
{4},,,8<1[2:1],
{8}C1f,,,,,8x,8x,,
{8}1h[4:1]/7,,4,5,2/6h[4:1],,4,3,
{8}2h[4:1]/5,,4,5,4/6h[4:1],,C1,,
{8}7x/8x,1x/6x,,,4x/5x,,2/7s3[4:1],,
{4}3s7b[4:1],1,1,2z6[4:1],
{4}6z2b[4:1],8,8,2-5b[8:1]/8-4b[8:1],
{16}2b/8b,,,,8<7[16:1]-5[16:1],,1,,2/8,,3,3,4,,6,5,
{16}7,,2,2,1<7[8:1]*v4b[8:1],,3/8,,1b,,,,5/6,,4/7,,
{8}8-2[8:1],3,8<6[8:1],5,8,2,1/5,1/5,
{32}2b,3,4,5,6,7,8,1,2b,3,4,5,6,7,8,1,2,,,,,,,,4-2[16:1]<1[16:1]/8v5b[8:1],,,,,,,,
{16}4b/8b,,,,7<6[16:1]-4[16:1],,4,,3/7,,2,2,1,,7,8,
{16}6,,3,3,4<6[8:1]*v1b[8:1],,2/5,,4b,,,,7/8,,6,,
{8}1-7[16:1]<6[16:1],5,1-3[16:1]<4[16:1],4,1,5,6,7-3[8:1],
{8}1-5[8:1],7<4[8:1],1,7,2h[4:1],,4b,,
{8}1/7,1,1/3-7[8:1]-5[8:1],1,1/3,1,1,2-4[8:1],
{16}5-1[8:1],,2-6[8:1],,5,,2,,8b,,,,1/7,,6,5,
{16}7h[8:1],,2,1,3h[8:1],,5,4,6,,7-4[8:1],,2v5[8:1],,7,,
{8}2,8-4[8:1],1v6[8:1],8,1x,,1b/7b,,
{8}2/8,8,8/6-2[8:1]-4[8:1],8,6/8,8,8,7-5[8:1],
{16}4-8[8:1],,7-3[8:1],,4,,7,,1b,,,,2/8,,3,4,
{16}2h[8:1],,7,8,6h[8:1],,4,5,3,,1-5[8:1],,7-3[8:1],,1,,
{8}7,2-6[8:1],7V53[16:3],2,7,,1-7b[8:1],2-4b[8:1],
{8}1-5b[8:1],2-6b[8:1],1,2,1b,,2/7,1-5[8:1],
{8}8-4[8:1],1,8,2-6[8:1],7-4b[8:1],2,7,1-3[8:1],
{8}7b-5b[8:1],1b-5[8:1],7b-3b[8:1],1b>4[8:1],7b<4b[8:1],1b-6[8:1],7b,1b,
{4}8bxw4b[8:1],8x,2b/6b,,
{8}3x/5x,,4/6h[4:1],,5,4h[4:1],,5,
{16},,5h[1:0],4,6,,5h[1:0],4,6-1b[8:1],,5h[1:0],4,6,,,,
{8}2-4[8:1]*v5[8:1],,2,,7,7h[4:1],,4h[4:1],
{16},,6h[1:0],5,7,,6h[1:0],5,7-3b[8:1],,6h[1:0],5,7,,2x,,
{8}2h[4:1],,4h[4:1],,3,5h[4:1],,4,
{16},,4h[1:0],5,3,,4h[1:0],6,2-8b[8:1],,4h[1:0],6,2,,,,
{8}7<5[8:1]*v4[8:1],,7h[1:0],,2,2h[4:1],,4,
{16},,6h[1:0],5,8bxh[1:0],,3h[1:0],4,1bxh[1:0],,8,1,2b/7b<4[8:1],,,,
{16}3xh[8:3]/7x,,,,,,5,4,5,3,6,2,8>1[32:1]-3[32:1]<4[16:1]*v5b[8:1],,1/7,,
{1}8b,
{1},
{1},
E
最終更新:2026年07月22日 09:13