アットウィキロゴ

セカイ

アーティスト DECO*27 × 堀江晶太(kemu) / 初音ミク、星乃一歌、天馬司、宵崎奏「プロジェクトセカイ カラフルステージ! feat. 初音ミク」

BPM BASIC ADVANCED EXPERT MASTER Re:MASTER
133 2 6 10 12+ -

EXPERT MASTER Re:MASTER
譜面制作者 小鳥遊さん うさぎランドリー -

BASIC

(133)

{1},,4,4,5,4/5,

{1}B5,B6,B7,B8,B1,B2,B3,C,{2}8,8,7,,6,6,6/5,,4,4,3,,2,2,1/8,,{1}1-4[4:3],,8-5[4:3],,1-5[4:3],,8-4[4:3],,

{2}1x,1,2,2,3,3,3/4,,5,5,6,6,7,7,7x/8x,,{4}8x,,8,,7,7,7,,6,,6,,6/5,,,,4,,4,,3,3,3,,2,,2,,1/8,,,,1,1,1,,2,2,2,,3,3,3,,4/5,,4/5,,6,6,6,,7,7,7,,8b/1b,,,,

{2}8h[4:2]/7h[4:2],,7/8,1,1h[4:2]/2h[4:2],,1/2,8,1b/8b
E

ADVANCED


(133)

{1},,{4}6h[2:1],,5,,6,6,6/5,,3h[2:1],,4,,3,3,3/4,,

{4}2,2,1,1,2,2,1/2,,3,3,4,4,3,3,4/5,,6,6,5,5,6,6,5/6,,7,7,8,8,1,1,1x/8x,,7,7,8,8,7,7,8/7,,6,6,5,5,6,6,5/4,,3,3,4,4,3,3,4/3,,2,2,1,1,8,8,8x/1x,,2-5[2:1],,,,6,6,5/6,,7-4[2:1],,,,3,3,3/4,,3-8[2:1],,,,7,7,7/8,,6-1[2:1],,,,2,2,1bx/8bx,,

{4}7,7,7/8,7/8,6,6,6/5,6/5,3,3,3/4,3/4,2,2,2/1,,3/4,3/4,3/4,,5/6,5/6,5/6,,7,6,5,4,3,2,1b/8b,,2,2,2/1,2/1,3,3,3/4,3/4,6,6,5/6,5/6,7,7,7/8,,5/6,5/6,5/6,,4/3,4/3,4/3,,2-6[2:1],,,,7-3[2:1],,,,B1,B2,B3,,B8,B7,B6,,B2,B3,B4,,B7,B6,B5,,B2,B3,B4,B5,B6,B7,B8/B1,,Cf,,,,

{2}2h[2:1],3h[2:1],4h[2:1],5,7h[2:1],6h[2:1],5h[2:1],4,3h[1:2]/6h[1:2]
E

EXPERT

(133)

{1}4^1[4:5]/5^8[4:5],{4},,,4x/5x,{8}3/4,2/4,,5/6,5/7,,3/4,2/4,1>5[4:1],,,,,,4/7,,5/6,5/7,,4/3,4/2,,5/6,5/7,{16}8h[16:3],,,2h[16:3],,,{8}4,4,,3b/5b,,

{4}4/6,6,4/6,6,5h[4:2]/6,6,{8}6,5,5/6,,{4}4h[4:1]/7,7,5h[4:1]/7,7p5[4:2],,,,4/6,3/5,3,3/5,3,4h[4:2]/3,3,{8}3,4,3/4,,{4}5h[4:1]/2,2,4h[4:1]/2,2pp5[4:2],,,,4/6,{16}7h[16:3],,,6h[16:3],,,5,,2h[16:3],,,3h[16:3],,,4,,{8}5^3[4:1],,,,,2,2,,{16}3h[16:3],,,4h[16:3],,,{8}5,,6,{1}6p4[4:2],{4}3/5,{16}2h[16:3],,,3h[16:3],,,4,,6h[16:3],,,7h[16:3],,,8,,{8}1>4[4:1],,,,,5,5,,{16}7h[16:3],,,6h[16:3],,,5,,3h[16:3],,,2h[16:3],,,1,,{8}1b/8b,,,4,{16}4x,,,3x/5x,,,4x/6x,,{2}7x-4[4:1],2-5[4:1],{4}E7,E8,E1/E3,,1h[4:1],2h[4:1],3h[4:1],4h[4:1],B3,B4,E5/E3,,{2}2-5[4:1],7-4[4:1],{4}E3,E2,E1/E7,,{8}7x,7,7,7,4/6,,3/5,,2x,2,2,2,1/8,,2b/7b,,

{16}5x/6x,,,3/4,,,1/8,,,,{8}7,8,1,{1}2<3[2:1],{2}1-6[8:1]/2-5[8:1],8-3[8:1]/7-4[8:1],{16}2x/5x,,,4x/7x,,,1x/8x,,,,{8}2b,2b,,{16}1x/2x,,,3q8[4:1]/4<7[4:1],,,,,,,,,,,8x/7x,,8x/7x,,,6-8[4:1]/5-1[4:1],,,,,,,,,,,2,,2h[16:3],,,3h[16:3],,,4,,8h[16:3],,,7h[16:3],,,6,,{8}6,,4,5,4/5,,1bx/8bx,,{16}2x/4x,,,5/7,,,1/8,,,,{8}2,1,8,{1}7>6[2:1],{2}8-3[8:1]/7-4[8:1],1-6[8:1]/2-5[8:1],{16}7x/4x,,,5x/2x,,,8x/1x,,,,{8}7b,7b,,{16}7x/8x,,,6p1[4:1]/5>2[4:1],,,,,,,,,,,1x/2x,,1x/2x,,,3/4w8[4:1],,,,,,,,,,,2x/7x,,2xh[4:1]/7xh[4:1],,,,,,1,8,1,,,,,,7,,7h[16:3],,,6h[16:3],,,5,,1h[16:3],,,2h[16:3],,,3,,{8}4bx/8bx,,6,6,5,,4/7,,2,2,1/3,,7,7,6/8,,4/5,,3,3,4,,2/5,,4/7,,5-2[8:1]/6-1[8:1],,,,3b/8b,,4/5,,7,7,8,,1/6,,3,3,2/4,,6,6,5/7,,{4}Ch[2:1],,,A8/D1/A1,

{8}5/6,5/7,,3/4,4/2,,5/6,5/7,8<4[4:1],,,,,,2/5,,3/4,2/4,,5/6,5/7,,4/3,4/2,{16}1h[16:3],,,7h[16:3],,,{8}5,5,,{4}2b-6[16:1]/6b,E1f
E

MASTER

(133)

{1},{4},,,4xb/5xb,{16}3,4,3,,2/5,,6,5,6,,4/7,,2,1,2,,8/3h[8:1],,4,4h[8:1],,1,1-5[8:1],,7,,8,,8,,,,6,5,6,,4/7,,3,4,3,,2/5,,7,8,7,,1/6h[8:1],,5,5h[8:1],,8,8-4[8:1],,2,,2,,1,,,,

{4}2h[4:3]/4,4,3,3,4h[4:1],3h[4:1],4,4/5,6h[4:3]/5,5,4,4,3h[4:3]/5,E4,B1,E7,7h[4:3]/5,5,6,6,5h[4:1],6h[4:1],5,4/5,3h[4:3]/4,4,5,5,6h[4:2]/4,4,{8}3,3/6,4x/5x,,{16}2h[16:3],,,3h[16:3],,,{8}4,4,{16}7,5,6,,3<5[8:1],4,,,{8}6,7,8,5,7,6/5h[4:1],,{16}7h[16:3],,,6h[16:3],,,{4}5,{16}2,4,3,,6,5,,,{8}4/7,6,5,3,2,3x/4x,,{16}2h[16:3],,,3h[16:3],,,{8}4,4,{16}7,5,6,,3<5[8:1],4,,,{8}6,7,8,5,7,5/6,5/6,4/7,{16}6,5,,7,8,7,8h[16:3],,,1h[16:3],,,{8}2,3/4-8[8:1],,2,2,{16}1x/7x,,,2x/6x,,,{8}3x/5x,{4}2xb/4V68-2<5[4:5],,3,3,4,4,4,{16}2/4,,,1/5,1h[16:3]/5,,,4,4,,,2/6,2h[16:3]/6,,,4,4,,,3/7,3h[16:3]/7,,,4,4,,,2/7,2/7h[4:1],,,,{4}5x,6x/5xV31-7>4[4:5],,6,6,5,5,5,{8}4/6,6,3/5,3,4/6,6,2/4,2,3/7,3/7,{16}2,8,2,8,3,7,4,6,5,,,,

{4}2b>6[8:1]/8b,{16}1xb/2xb,,,8,,,{8}5xb/7bxp1[8:3],,4,4,3,2,{16}2,4,,4,1h[16:5],,{32}E5,E4,E3,E2,E1,E8,E7,E6,{8}E5f,2,2^5[8:1],{16},1,2,,8,,7^4[8:1],,,8,7,,1,,2h[8:1],,3,3h[8:1],,4,4h[16:5],,{32}E1,E8,E7,E6,E5,E4,E3,E2,{8}E1f,3,{16}2/4,,,1V35[16:3],,,5-1[16:3],,,,7,,7,,6,,5/7,,,8V64[16:3],,,4-8[16:3],,,,3,,3,,2,,8,,1/7,1x/7xh[16:3],,,5,4,6,,3/5,3/5h[16:3],,,4,,2x/4x,,6,5x/7x,,3,{8}2x/4x,6,4/5,1/7<3[8:1],,{16}7xb/8xb,,,1,,,{8}4xb/2bxq8[8:3],,5,5,6,7,{16}7,5,,5,8h[16:5],,{32}E5,E6,E7,E8,E1,E2,E3,E4,{8}E5f,7,{16}7^4[8:1],,,8,7,,1,,2^5[8:1],,,1,2,,8,,7h[8:1],,6,6h[8:1],,5,5h[16:5],,{32}E1,E2,E3,E4,E5,E6,E7,E8,{8}E1f,6,{16}5/7,,,4V28[16:3],,,8-4[16:3],,,,7,,7,,6,,4xb/5xb,,,1xb/8xb,,,3bxq8[8:1]/6bxp1[8:1],,,,,,,,1x/8x,,1x/8x,,6,5,7,,3,4,2,,7,5,8,,2,4,1-5[8:1],,8,8,1,,6,,3b^8[8:1]/7b^4[8:1],,,,,,,,2b/6b,,,,3-1[8:1],4,2,,3/5,,6,,7-5[8:1],8,6,,7/1,,2,,3,4,2,,1/5,,3V51[4:1]/7V51[4:1],,2/8,,,,,,,,3-5[8:1],1,2,,3/8,,7,,7-1[8:1],5,6,,4/7,,3,,3h[16:3],,,5x,5x^8[8:1],,,4,4,,3,,2b/8b,,,,8-4[8:1],1,7,,2/8,,3,,4-8[8:1],5,3,,4/6,,7,,1,8,1,8,1,,2/6,,3,5,4h[8:5],,{4}8xbh[8:4],,,Cf/B6/E6/B5/B4/E4/B3,

{16}2,1,2,,3/8,,7,8,7,,1/6,,6,5,6,,8/3h[8:1],,4,4h[8:1],,1,1>5[8:1],,7,,8,,8,,,,6,5,6,,4/7,,3,4,3,,2/5,,7,8,7,,1/7,,3,2/4xb,,6,7/5xb,,{24}1x,8x,1x,8x,1x,8x,{4}1x,2b/7b
E

Re:MASTER


名前:
コメント:

タグ:

+ タグ編集
  • タグ:
最終更新:2026年06月26日 12:57