| アーティスト |
八王子P / 初音ミク / Vivid BAD SQUAD「プロジェクトセカイ カラフルステージ! feat. 初音ミク」 |
BASIC
(140){1},
,,1h[1:1],,8h[1:1],,8,8,1,1x/8x,
{2}1b,1,2,,3,3,45,,5,5,6,,7,7,18,,
7h[2:1]/8h[2:1],,78,,5h[2:1]/6h[2:1],,56,,3h[2:1]/4h[2:1],,34,,1h[2:1]/2h[2:1],,12,,1,1,2,2,3,3,45,,5,5,6,6,7,7,18,,
8-4[4:3],,,,1-5[4:3],,,,7-3[4:3],,,,2-6[4:3],,,,
{4}8bx,8,8,,7,,7,,6,6,6,,45,,45,,4,4,4,,3,,3,,2,2,2,,1x/8x,,,,1,1,1,,2,2,2,,3,3,3,,45,,45,,5,5,5,,6,6,6,,7,7,7,,1bx/8bx,,,,
7,7,7,,78,,78,,6,6,6,,45,,45,,3,3,3,,34,,34,,2,2,2,,
1bx/8bx,,,,B1/B8,,,,B2/B7,,,,B3/B6,,,,B4/B5,,,,E3,,E2,,E1,,E8,,E7,,E6,,{1}Ch[1:1],,,,,,,,,
E
ADVANCED
(140){1},
,,{2}2,2,3,3,4,4,56,,7,7,6,6,5,5,3x/4x,,
{4}B2,B3,B4,,B7,B6,B5,,B2,B3,B4,B5,B6,B7,B1/B8,,B4,B3,B1/B2,,B5,B6,B7/B8,,B3,B4,B5,B6,C,,,,
2,2,12,,3,3,34,,5,5,56,,78,78,78,,7,7,78,,6,6,56,,4,4,34,,1x/2x,,,,2-5[2:1],,,,6-3[2:1],,,,2-6[2:1],,,,78,78,78,,7-4[2:1],,,,3-6[2:1],,,,7-3[2:1],,,,12,12,12,,
3h[2:1],,4h[2:1],,5h[2:1],,6,,6h[2:1],,5h[2:1],,4h[2:1],,3,,2h[2:1],,3h[2:1],,4h[2:1],,5h[2:1],,6h[2:1],,7,,1b/8b,,,,
2,2,1,1,8,8,78,,6,6,7,7,8,8,12,,3,3,34,34,2,2,12,12,8,8,78,78,56,56,56,,7,7,8,8,1,1,12,,3,3,2,2,1,1,78,,6,6,56,56,7,7,78,78,1,1,12,12,3b/4b,,,,
2>5[2:1],,,,6<1[2:1],,,,2,2,34,34,5,6,78,,7<4[2:1],,,,3>8[2:1],,,,7,7,6,6,4b/5b,,,,
56,,56,,78,,78,,12,,12,,34,,34,,4,3,2,1,8,7,6,5,4,3,2,1,8,7,6,5,{1}4h[16:51]/5h[16:51],,,,,,,,
E
EXPERT
(140){1},
,,3xh[2:3]/7xh[2:3],{4},,,45,2xh[4:3]/6xh[4:3],,,,3xh[2:1]/5xh[2:1],,,35,4,4h[4:1],6,6h[4:1],3,3h[4:1],7,7h[4:1],{8}2x,2x,8x,8x,1x,1x,1x/8xV26-4[4:3],,{4},,,,
2b/4b,3,57,6,24,3,{8}6,6,56,,24,,3,,57,,6,,45,,E1/B1,,E7/B7,,E3/B3,,5b/7b,,6,,24,,3,,57,,6,,3,3,34,,56,,67,,78,,1/8V64[2:1]*V24[2:1],,,,,,,,3b/5b,,
2h[1:3],,5,,4,4,4,,3,,3,,4,4,4,,5,,5,,4,4,4,,3,,34,,45,,56,,7h[4:11],,6,,5,5,5,,4,,4,,5,5,5,,6,,6,,5,5,5<1[2:1],,,,,,,,1b/6b,,{16}2h[16:3],,,3h[16:3],,,4h[8:3],,,,6,,6,,,,7h[16:3],,,6h[16:3],,,5h[8:3],,,,3,,3,,,,34,,,,1,,,,56,,,,8,,,,1h[16:3]/8,,,2h[16:3],,,3,,,,45,,45,,,,6h[16:3],,,7h[16:3],,,8h[8:3],,,,2,,2,,,,3h[16:3],,,2h[16:3],,,1h[8:3],,,,7,,7,,,,78,,,,5,,,,12,,,,4,,,,{16}45,,,45,,,3b/6b,,{4},,
2h[2:1]/5h[2:1],,,34,4h[2:1]/7h[2:1],,,56,1h[2:1]/6h[2:1],,,78,1/2q5[2:1],,,6b,5h[4:1]/7h[4:1],{8},57,,6,6,,2h[4:1]/4h[4:1],,,24,,3,{4}3,8h[4:1],7h[4:1],6,5-8[2:1]/4-1[2:1],,,,1b/8b,
2-5[8:1]/1-5[8:1],,8-4[8:1]/7-4[8:1],,12,34,56,78,8-4[8:1]/7-4[8:1],,2-5[8:1]/1-5[8:1],,56,78,12,34,{16}6,5,6,5,6,,,,4x/7x,,,1bx/2bx,,,,,3,4,3,4,3,,,,2x/5x,,,7bx/8bx,,,,,6h[4:1],,,,5h[4:1],,,,4h[4:1],,,,3,,,,45,,,45,,,2b/7b,,,,1x,,{4}1x,8-4[8:1]/7-4[8:1],,2-5[8:1]/1-5[8:1],,78,56,34,12,2-5[8:1]/1-5[8:1],,8-4[8:1]/7-4[8:1],,34,12,78,56,{16}3,4,3,4,3,,,,2x/5x,,,7bx/8bx,,,,,6,5,6,5,6,,,,4x/7x,,,1bx/2bx,,,,,3h[4:1],,,,4h[4:1],,,,5h[4:1],,,,6,,,,36,,,,,,18,,18,,,2<7p6>4b[16:21]/7,,,Cf,,
{4},,,,,,,45,34,28,17,6pp1[16:9]/5qq2[16:9],,,,3x/8x,5b/6b,17,34,28,56,18,34,18,6h[4:1],4h[4:1],2h[4:1],8-5[2:1]*z4[2:1],,,,3b/6b,
2h[1:2],{8},3,3,,,1,1,,,4,4,,,7,7h[2:3],,,8,8,,,5,5,,,1,1,,2b/8b,,3h[4:1],,4h[4:1],,5h[4:1],,6h[4:1],,2h[4:1],,4h[4:1],,5h[4:1],,7h[4:1],,1,1,8,8,{16}1,8,1,8,1-6V48[4:3],,,,{1},1h[1:5]/7<2[4:19],,,,,,,,
E
MASTER
(140){1},
,,{4}3<6[4:1],,7p3[4:1],,2qq7[2:1],,,6,6>3[4:1],,2q6[4:1],,7pp2[2:1],,,3,{8}3,3,4,4,5,5,6,6,2,2,4,4,5,5,7,7,1,2,3,45,6,7,8V64[2:1]/1V35[2:1],18,,,,,,,45,,
5,4-2[8:1]/6,,8-6[8:1],,3-1[8:1],,7-5[8:1],,2h[8:5],,E3,E4,E5,E6,,8,1/7-5[8:1],,3-1[8:1],,6-4[8:1],,2-8[8:1],,6h[8:5],,E8,E7,E6,E5,,3,2-5[8:1]/4,,6-1[8:1],,3-8[8:1],,7-4[8:1],,2V41-5[8:3],,6,6,7,7,,6,5/7-4[8:1],,1-4[8:1],,5,5V31[8:3]*V71[8:3],,,,,,,7x/8x,16,25,
3h[8:1]/4h[8:1],,5h[8:1]/6h[8:1],,{16}2h[16:3],,,3h[16:3],,,4,,,,45,,6,5,,4h[16:7]/7,{8},6,7,8-4[8:1],4-8[8:1],,,2-6[8:1],6-2[8:1],,,8,17,{16}2,4,,7,5>1[4:1],,,,6,,7,,8,,2h[8:1]/8h[8:1],,,,4h[8:1]/6h[8:1],,,,7h[16:3],,,6h[16:3],,,5,,,,45,,3,4,,2/5h[16:7],{8},3,2,1-5[8:1],5-1[8:1],,,7-3[8:1],{4}3-7[8:1],1xqq5[2:1]*pp5[2:1],,,,45,{16}24,,,18,,,5/7-4[8:1],,,,4,,3,,2,,18,,,57,,,2-5[8:1]/4,,,,5,,6,,7,,18,,8,7,,7,6,,45,,4,3,,3,2,,12,,,45,,,7V51[4:1]/8,,,,1,,2,,3,,34,,,18,,,5>2[8:1]/6,,,,6,,7,,8,,13,,,45,,,6/8>4[4:1],,,,5,,5,,6,,7,,7,5,,5,4,,2,,2,4,,4,5,,16,,,38,,,25,,3,4,3,,{4}18,
2bpp8[2:1]/7bh[8:3],,7,6,1h[8:3]/6pp4[2:1],,1,2,3qq8[2:1]/5h[8:3],,5,6,7pp2[2:1]/5p2[2:1],,,,4/8<4[2:1],3,2,1,1>5[2:1]/5,6,7,8,{8}1,1,28,28,37,37,46,46,5V71[4:1]*V31[4:1],,,,,,7-4[8:1]/3-8[8:1],,
3b/7b,,6-1[8:1]/2-5[8:1],37,26,,48,2h[8:1]/6h[8:1],,35,{16}1,8,,46,,,37,,6-1[8:1]/2-5[8:1],,15,,26,,,,7-4[8:1]/3-8[8:1],,48,,37,,,,15,,3h[8:1]/7h[8:1],,,,17,,35,3>5[16:3]/5,,46,,,,,4b,,,,3,4,2,5,1-5V38[4:1],,78,,1,,,,,,,,6,5,7,4,8-4V26[4:1],,12,,8,,,,,,,,3,,24,,15,15,,3/7<4[16:3],,,3,,2,,1,,15,,26,,37,,48,,{32}4,5,6,7,8,1,2,3,{8}8b<5[8:1]/4b>1[8:1],,48,,6<1[8:1]/2>5[8:1],37,26,,48,2h[8:1]/6h[8:1],,17,{16}35,35,,2b/6b,,,15,,6<1[8:1]/2>5[8:1],,37,,26,,,,7<4[8:1]/3>8[8:1],,26,,37,,,,15,,3h[8:1]/7h[8:1],,,,18,,24,2/4>6[16:3],,57,,,,,5b,,,,6,5,7,4,8-4V61[4:1],,12,,48,,,,,,,,3,4,2,5,1-4V62[4:1],,78,,15,,,,,,,,26,,4,5,3,4,,17,,,6,5,6<1[8:1],,12,,3h[4:1],,,,,,45,,27,,,18,8-4[8:1]/1-5[8:1],,27,,
{16}8b<1[4:5]/1b>8[4:5],Cf,,,{4},,,,,,2/8-4[8:1],{8}1-5[8:1]/8,2,17,,4/6-1[8:1],7,26,,3-8[8:1]/4,2,3/5-1[8:1],6,4-8[8:1]/5,3,4/6-1[8:1],7,3h[4:1]/6,,,2h[4:1]/8h[4:1],,,1V35v2[2:1]/7h[4:1],,,8,7,6,7,8,12,,3,24,{16}1,8,,5h[8:1]/7h[8:1],,,57,,46,,37,,{4}8x-5V71[2:1]/2x-5V31[2:1],,,,
2>6[4:1]/4h[4:1],,C,78,4h[4:1]/6V82[4:1],,E4/B4,12,3>7[4:1]/5h[4:1],,E5/B5,46,1V75-3[4:1]/2h[8:1],,C,28,{8}35,2,18,7,46,35,24,18,46,7,18,2,35,46,57,12,{16}3,4,2,5,1,6,8,7,2,1,3,8,4,7,5,6,3,4,2,6,5,7,3,4,1,6,5,8,2-6[8:1],6,4,8,2b,Cf,,,{4},,,{1},,,,,,,
E
Re:MASTER
最終更新:2026年11月03日 14:59