BASIC
ADVANCED
EXPERT
MASTER
(150)
{8}2h[4:1],,4h[4:1],,2,2,4,4,
{1}3pp4[2:1],
{8}6h[4:1],,5h[4:1],,6,6,5,5,
{1}7<4[2:1],
{8}2h[4:1],,4h[4:1],,2,2,4,4,
{1}3pp4[2:1],
{8}6h[4:1],,5h[4:1],,6,6,5,5,
{4}7-3[4:1],,,2b/8b,
{4}4/6,5/7,5/7v6-4[2:1],{8}4,4,
{8},2,2V48[4:1],,5b,,,7,
{8}7-5[16:3],,8,1,2-8[16:3],,4,4-6v3[8:3],
{8},8,8,,1h[8:3],,,3,
{4}3<6[4:1],1,2,{8}3/7,6,
{8}5,4,3,,2h[4:1]/6h[4:1],,,,
{8}2,2-7[4:1],6,6-3[4:1],,,1,,
{4}2/4,6/5-8[8:1]*-2[8:1],,3x/7x,
{8}6bx-4[8:1],,3,,3,4,2,4,
{8}4/1x>4[4:1],,5,5,6<1[4:1],,3,3,
{4}2,2/B8/E1,2/B4/E5,2/C,
{8}1/2h[2:1],,E2,E3,E4,,2/5,,
{8}3bx-5[8:1],,6,,6,5,7,5,
{8}5/8x-4[4:1],,3,3,2-5[4:1],,6,6,
{4}7,7/B5/E5,7/B1/E1,7/C,
{4}1-5[4:1]/7-3[4:1],,,1x/8x,
{1}3<6[2:1]/5h[2:3],
{1}6>3[2:1],
{1}5pp5[2:1]*qq5[2:1],
{4}4,3/5,6,5/7,
{8}1,1,2/8,,4/6,,7/3>5[2:1],,
{8}B5f,,,3,4h[4:1],,3>5[2:1],,
{8}5bx,,,3,4x,,5,5,
{8}4/6,7,1/8,2,3/4-1[8:1],5,6,,
{8}7/8,,1/2,1/2,3b/7b,,6<4[2:1],,
{8}B4f,,,6,5h[4:1],,6<4[2:1],,
{8}4bx,,,6,5,,4V28[4:1],,
{4}8V64[4:1],4V28[4:1],8V64[4:1],4pp8[8:3]*qq8[8:3],
{4},,2bx/6bx,3>5[2:1],
{8}B5f,,,3,4h[4:1],,3>5[2:1],,
{8}5bx,,,3,4,,3,,
{4}1-5[8:1]/2-4[8:1],1x/2x,7-5[8:1]/8-4[8:1],7x/8x,
{8}1<6[8:1]/2>5[8:1],,1/2,,4b/8b,,,1/7,
{8}1/7,2,3/4,5,6/4-8[8:1],,,7,
{16}7h[16:3],,,6h[16:3],,,5,,4h[16:3],,,3h[16:3],,,2z6[8:3],,
{8}2,,,,,8q1>5[8:5],8,2h[8:5],
{4},,,4b/8b,
{1}B3/E3/E4/Ch[4:3],
{4}1x>7[2:1],E1f,7<1[2:1],8,
{4}1s5[4:1],8,8,4/6,
{8}6,6,5/7,8,1/2,3,6/4-8[8:1],,
{4}4/7-3[8:1],7/1-4[8:1]*-6[8:1],1,3bx/7bx,
{4}8<2[2:1],E1f,2>8[2:1],1,
{4}8z4[4:1],1,1,3/5,
{4}2/4V68[4:1],8V24[4:1],4V68[4:1],8V24[4:1],
{4}4pp8[8:3]*qq8[8:3],,,2b/6b,
{4}1>7[2:1]b,E1f,7<1[2:1]b,8,
{4}1w5[4:1]b,,,3x/7x,
{8}2/6,2/6,3-8[8:1]/7-4[8:1],,3/7,,2-5[8:1]/6-1[8:1],,
{4}2/6,3qq4[4:1]/7qq8[4:1],,,
{8}2b/6b,,7/8,6,4/5,3,1/2>5[8:1],,
{16},,6,,6h[16:3],,,7h[16:3],,,8,,1h[16:3],,,2h[16:3],
{8},3p8[8:3],3,,,,,7V51[8:3],
{8}7-2-4[4:1],7,,,,,3/8,,
{4}6/1-5[8:1],1/8-4[8:1],1<6[8:1]/8>3[8:1],1/8,
{16},,2/4,,2x/4x,,,1/8,,,5/7,,4/5,,,2/4,
{8},8/7q1>6[16:11]b,6/1h[4:3],,,,,,
{8},,2v5[8:1],6q2[8:1],2,6,,,
{16}1b/4b,,,,2x/6xh[16:3],,,8,8,,{8}7,1/8,2,
{16}1/3,,,,3h[16:3],,,1,1,,{8}2,1/8,7,
{16}6/8,,,,6h[16:3],,,5,6,,{8}4/7,3/8,1/2,
{4}3>8[8:1],3/6>3[8:1],6/1w5[8:1],1,
{16}3x/7x,,,,3h[16:3],,,4,4,,{8}2,1/8,7,
{16}5/6,,,,6h[16:3],,,5,5,,{8}7,1/8,2,
{16}3/4,,,,2h[16:3],,,4,3,,{8}4/5,6,7,
{4}5/8-6[8:1]*-5[8:1],8-2[8:1]*-3[8:1],8-4[8:1],8,
{16}2/6,,,,3bxh[16:3],,,1,3,,{8}2/8,1-5[8:1]/7-5[8:1],,
{16}1/7,,,,6h[16:3],,,8,6,,{8}1/7,2-4[8:1]/8-4[8:1],,
{16}2/8,,,,3h[16:3],,,4,3,,{8}2/5,1/6,7/8,
{4}6/1>5[4:1],5<1[4:1],1-5[8:1],,
{16}4/6,,,,2h[16:3],,,1,1,,{8}1/8,7-5[8:1]/8-4[8:1],6,
{16}7/8,,,,7h[16:3],,,8,8,,{8}1/8,1-5[8:1]/2-4[8:1],3,
{16}1/2,,,,6h[16:3],,,5,5,,{8}4/7,3-1[8:1]/8-4[8:1],,
{4}3/8,2h[4:3]/6<2<6[2:1],,,
{4},1h[4:1],4h[4:1],{8}2,2,
{8}4,4,3qq4[2:1],,,,,,
{4},6h[4:1],5h[4:1],{8}7,7,
{8}6,6,8qq5[2:1],,,,,,
{4},2h[16:3],4h[16:3],{8}5,5h[16:3],
{8}7,7h[16:1],6,,{16}6-3[8:1]b/7-2[8:1]b,,,,,C,
E
Re:MASTER
最終更新:2026年06月23日 23:28