BASIC
ADVANCED
EXPERT
MASTER
(130){1},
{16}3,4,3,4,,6,5,6,5,,E6,,E5,,E4,,3,4,3,4,,6,5,6,{8}5,E6,E5,E4,2-5[4:1],2,5,6,6,6,56,56,7-4[4:1],7,3,2,2h[4:1],,4,,{16}12,,34,,45,,56,,78,,2,1,,6,5,,78,,56,,45,,34,,12,,6,5,,3,4,,56,,78,,18,,12,,34,,6,5,,5,6,,34,,12,,18,,78,,56,,3,4,,6,5,,78,,56,,45,,34,,12,,7,8,,3,4,,12,,34,,45,,56,,78,,3,4,,6,5,,34,,12,,18,,78,,56,,3,4,,4,{8}3,56,78,8<5[8:1]/1p4[8:1],2,,,3x<4-2-5[4:1],,
8xh[2:1],,,,4,4,3<4-2-5[4:1],2,1h[2:1],,,,4,4,3<4-2-5[4:1],2,8h[2:1],,,,4,4,3<4-2-5[4:1],2,{16}1,,,,8,,8,,4,5,3,,3<4-2-5[4:1],,2,,{8}1,,8,8,46,46,3<4-2-5[4:1],2,1,,8,8,46,46,3<4-2-5[4:1],2,1,,8,8,1,2,3<4-2-5[4:1],2,8,,6,6,{16}4,5,3,,3<4-2-5[4:1],,2,,8,,,,7,7,4,,56,,4,,3<4-2-5[4:1],,2,,1,,,,8,8,6,,56,,4,,3<4-2-5[4:1],,2,,1,,,,7,7,{8}4,56,3,2-5[8:1],1,28,,2-8[8:1],4,25,5,3<4-2-5[4:1],2,{16}8,,,,7,7,5,8,4,7,3,6,3<4-2-5[4:1],,2,,1,,,,8,8,5,7,4,6,3,5,3<4-2-5[4:1],,2,,1,,,,7,7,4,6,4,6,3,5,{8}2-5[8:1],1,25,6,2-8[8:1],8,27,6,57,,
{16}2h[16:3],,,4,{8}4h[8:1],5V31[4:1],5h[4:1],,,,{16}7h[16:3],,,5,{8}5h[8:1],4-8[8:1],4h[4:1],,,,{16}8h[16:3],,,6,{8}6h[8:1],5<1[4:1],5h[4:1],,,,{16}4h[16:3],,,2,2h[8:1],,1,,1v8[8:1],,,,5,,,,6,,,7,5,,8,,8xv1[4:1],,,,4,,,,3,,,2,4,,1,,{4}1-5[8:1],1/7-3[8:1],2-6[8:1]/7,2/8-4[8:1],1-5[8:1]/8,16,7/E4f,4>1[8:1]/E6f,Cf,2b-6-4[4:1]/1b-7-3[4:1],
{8}12,,,,24,5,6b-2-8[4:1]/5b-3-7[4:1],,56,,,,57,3,2b-4-8[4:1]/1b-5-7[4:1],,12,,,,78,4,12,5,68,4,13,6,5-8[8:1]*-2[8:1]/7,4,,,{16}7-4[8:1],7,,8,8,,2q6[8:1],2,,1,1,,8,8h[16:3],,,3-8[8:1],3,,4,4,,6q2[8:1],6,,5,5,,3,3h[16:3],,,4<8[8:1],4,,3,3,,5>1[8:1],5,,6,{8}6,4,5,6,7,8,1,2,34,4b-6-2[4:1]/3b-7-1[4:1],,34,,,,12,8,8bV26[4:1]/7b-3-5[4:1],,78,,,,46,3,4b-8-6[4:1]/3bV15[4:1],,34,,,,56,1,34,8,57,1,24,7,8-5[8:1]*-4[8:1],1,8,,{16}6V82[8:1],6,,5,5,,3V17[8:1],3,,4,4,,5,5h[16:3],,,3V17[8:1],3,,4,4,,6V82[8:1],6,,5,5,,3,3h[16:3],,,1-7-4[8:1],1,,2,2,,8-2-5[8:1],8,,7,{8}7,1,2,3,4,5-1[8:1],6,7,8,8x<1[2:3],,
{1}Cf,,8V64[2:1],1V35[2:1],{2}4bh[4:1]/6h[4:1],{16}4,5,4,5,4,5,4,5,
2x,6,2,6,2,6,3x,7,3,7,3,7,2x,6,2,6,1x,4,1,4,1,4,2x,5,2,5,2,5,3x,6,3,6,4x,7,4,7,4,7,5x,8,5,8,5,8,4x,6,4,6,3x,7,3,7,3,7,3,7,4,6,4,,3,,2,,1x,8,1,8,3x,4,3,4,2x,5,2,5,1x,8,1,8,4x,6,4,6,3,5,3,5,8x,7,8,7,4x,5,4,5,2x,1,2,1,3,4,3,4,2x,5,2,5,4x,7,4,7,2x,8,2,8,3,5,3,5,4x-1[8:1],6,4,6,4,,,,2b,4,3,4,3,4,3,4,2b,4,3,4,3,4,3,4,1b,4,3,4,3,4,3,4,1b,4,3,4,3,4,3,4,8b,4,3,4,3,4,3,4,7b,4,3,4,3,4,3,4,6b,4,3,4,3,4,3,4,5b,4,3,4,3,,2,,
{4}2-5[4:1],E6,7-4[4:1],E4,3-8[4:1],E6,6-1[4:1],E4,4>1[4:1],E6,5<8[4:1],2q5[2:1],,,7,{24}8-4[8:1],7,6,5,,,
{8}8-5[8:1]*-3[8:1],,8,,35,{16}2<7[8:1],2xh[16:7],{8},,,7,8-6[8:1],1,2-8[8:1],3,5,6,57,6h[8:1]/8h[8:1],,2,13,2h[8:1]/4V68[8:1],,3h[4:1],,1,2v5[8:1]/1<6[8:1],3,12,,4<7[8:1]*>1[8:1],,4-8[8:1],,4,,17,{16}6>3[8:1],6xh[16:7],{8},,,3,4-2[8:1],5,6-4[8:1],7,8,1,24,1h[8:1]/3h[8:1],,8,78,6v1[8:1]/5>2[8:1],7,56,,8,8,46,46,{16}7,5,6,,78,,12,,3,4<3V15[16:37],,,2xh[8:19],,{4},,,{1},,,,,,
E
Re:MASTER
最終更新:2026年06月27日 19:27