アットウィキロゴ

Candy Tall Woman

アーティスト naotyu- feat. 佐々木恵梨

BPM EASY BASIC ADVANCED EXPERT MASTER Re:MASTER
190 3 6 8 11+ 13+ -

EXPERT MASTER Re:MASTER
譜面制作者 ものくろっく 某S氏 -

EASY


BASIC


ADVANCED


EXPERT


MASTER

(190)
{1},
{24},,,,,,,,,,,,,,,,,,1h[1:1],,,,6,5,
{4}4,,2,7h[4:5],
{24}2,3,4,,,,,,,6,,,,,,,,,,,,,,,
{24}1,2,3h[12:11],,,,,,,,,,1,,,,,,8,,,,,,
{24}7,6,5h[3:1],,,,,,,,4<3[12:13],,,,,,,,,,,,,,
{1},
(216){12}5h[4:1],,,4,,5,4h[4:1],,,5,,4,
{12}6h[4:1],,,4,,6,3h[4:1],,,5,,3,
{12}5,,4,5,,5/6,,,4/5,,,3/4,
{4},1,2,3,
{12}2/4,,3,4,,3/5,,,4/6,,,5/7,
{12},,8,1,,,1/2,,,3/8,,,
{4}7<4[8:1],8,2>5[8:1],1,
{24}8,,,,,,3q8[4:1]/7<4[4:1],,,,3/7,,,,,,,,,,,1,,,
{8}2/6,3/7,,4/8,3/7,,2/6,3qq8[8:11]/7qq4[8:11],
{1},
{1},
{12}4/5,,,5,,5,4,,4,5,,5,
{4}4h[4:1],3,6h[4:1],7,
{4}2h[4:1],3,8h[4:1],7,
{4}1h[4:1],2,7h[4:1],6,
{4}3h[4:1],2,5h[4:1],6,
{4}4>1[4:1],1<6[4:1],6>3[4:1],3,
{4}7>2[4:1],2>5[4:1],5<8[4:1],8,
{12}4,,4,5,,5,3,,3,6,,6,
{4}4/5,1/8,4/5,2/7,
{4}1q5[8:1],8,8p4[8:1],1,
{4}2>5[8:1],7,7<4[8:1],2,
{4}3>8[8:1],5,6<1[8:1],4,
{4}4p8[8:1],6,5q1[8:1],3,
{12}4,,4,5,,5,6,,6,7,,7,
{12}8,,8,1,,1,2,,2,3,,3,
{12}4,5,4,6,3,6,2,7,2,8,,,
{4}2/7,8b,8b,8b,
{12}8-4[8:1],,8,1,,,1-5[8:1],,1,8,,,
{12}7-4[8:1],,7,8,,,2-5[8:1],,2,1,,,
{12}8,,,1h[4:1]/7h[4:1],,,,,,5/6,,5p2[12:7]/6,
{4},,7,6,
{4}5<8[4:1],8>3[4:1],3<6[4:1],6,
{4}2<7[4:1],7<4[4:1],4>1[4:1],1,
{12}5,,5,4,,4,6,,6,3,,3,
{12}4/5,,5h[4:1],,,4,5,,,2/7,,,
{12}8p4[8:1],,8,1,,,1q5[8:1],,1,8,,,
{12}7<4[8:1],,7,8,,,2>5[8:1],,2,1,,,
{12}6<1[8:1],,6,5,,,3>8[8:1],,3,4,,,
{12}5q1[8:1],,5,4,,,4p8[8:1],,4,5,,,
{12}5,,5,4,,4,3,,3,2,,2,
{12}1,,1,8,,8,7,,7,6,,6,
{12}5/7,,,4,,3/5,,,6,4,,,
{12}3/5,,,4/6,,,1,,8,,,2b/7b,
{4},1/8,2/7,3/6,
{4}3<5[8:1],7,7p3[8:1],2,
{4}2qq5[2:1],,,8h[4:1],
{4}7h[4:1],6h[4:1],5h[4:1],4,
{4}2h[4:1],3h[4:1],4h[4:1],5,
{12}4/6,,4/6,,,5,4,,,3/5,,3/5,
{4},1/8,4/5,2/7,
{4}4,3/5,5,4/6,
{4}3,2/4,6,5/7,
{4}1>4[4:1],4<7[4:1],7>2[4:1],2q5[2:1],
{4}6h[4:1],,7,6/8,
{12}1/7,,1/7,,,4,5,,,2/8,,2/8,
{12},,5,4,,3,5,,6,4,,2,
{12}1/3,,1/3,,,5/7,,,2/4,,,6qq3[12:7]/8,
{4},1b,1b,1b,
{12}2>5[8:1],,2,1h[4:1],,,6>3[8:1],,6,7h[4:1],,,
{12}2,,2q5[3:1],8,,8,,,,7,,,
{12}7<4[8:1],,7,8h[4:1],,,3<6[8:1],,3,2h[4:1],,,
{12}7,,7p4[3:1],1,,1,,,,2-6[8:1],,,
{4}1-5[8:1],8-4[8:1],7-3[8:1],6-2[8:1],
{4}5-1[8:1],4-8[8:1],3-7[8:1],2,
{2}4p8[8:1]/8p4[8:1],1>4[8:1]/5<8[8:1],
{12}3/6,,3qq5[3:1]/6pp4[3:1],,,3/6,,,,,,,
{12}1b/8b,,,1b/8b,,,2,8,1,7,1,8,
{12}2/7,,,1/8,,3/6,,,5,4,,,
{12}4b/5b,,,4b/5b,,,3,5,4,6,4,5,
{12}3/6,,,4/5,,2/7,,,8,1,,1,
{4}8,2pp4[8:1]/7,1/2,8,
{4}1,2/7qq5[8:1],7/8,1,
{8}1h[8:7],8,,4,,2,,6,
{6}7h[3:1]/8,6,5,3h[3:1]/4,2,1,
{12}4/8,,7,1,,2,8,,7,1>8[4:3],,,
{1},
{4}1,2/8,8,1/7,
{4}3,2/4,6,5/7,
{12}2h[6:1],,1,3/8,,,7h[6:1],,8,1/6,,,
{12}3h[6:1],,4,2/5,,,6h[6:1],,5,4/7,,,
{12}2/4,,3,4,,4,5,,5,6,,6,
{12}5/7,,6,5,,5,4,,4,3,,3,
{12}2/4,,,5/7,,,1,,8,,,4b/5b,
{12},,3b/6b,,,2b/7b,,,1,8,1,8,
{12}2/7,,,2/7,,,3,4,3,5,4,5,
{12}3h[6:1],,4,3,,2/4,,,5,4/6,,,
{12}2/7,,,2/7,,,6,5,6,4,5,4,
{12}6h[6:1],,5,6,,5/7,,,4,3/5,,2,
{4}1,1w5[8:1]/2,1b,3/7,
{4}8,7/8w4[8:1],8b,2/6,
{8}8h[8:7],1,,5,,7,,3,
{6}1b/2h[3:1],3,4,5b/6h[3:1],7,8,
{12}1/5,,5,4,,3/4,,,4/5,,,5/6,
{4},1,2,3,
{12}3/5,,4,5,,4/6,,,3/5,,,2/4,
{12},,1,8,,,7/8,,,1/6,,,
{4}2>5[8:1],1,7<4[8:1],8,
{24}1,,,,,,2>5[4:1]/6p1[4:1],,,,2/6,,,,,,,,,,,8,,,
{8}3/7,2/6,,1/5,2/6,,3/7,2pp5[8:11]/6pp1[8:11],
{1},
{1},
{12}4/5,,5,4,,4,5,,,4/5,,,
{12}4/5,,4,5,,4-8[8:1]/6,,,,1b,,,
{1},
{1},
{1},
E

Re:MASTER


名前:
コメント:

タグ:

+ タグ編集
  • タグ:
最終更新:2026年10月04日 18:09