BASIC
ADVANCED
EXPERT
MASTER
(185)
{1},
{16},,,,,,,,4/5,,4,5,3,6,2,7,
{2}1b>8[4:13],C1,
{2},C1,
{2},C1,
{2},C1,
{2}1>4[4:3],E1,
{2}8<5[4:3],E1,
{2}4>1[4:3],E5,
{2}5<8[4:3],E5,
{4}2h[4:5],8,8,1,
{8}3,,4,,3/5,3h[4:1]/5h[4:1],,,
{4}7h[4:3],8,8,6,
{8}5h[4:1]/7h[4:1],,,,4/6,4/6,,,
{4}5h[8:1]/6h[8:1],5h[8:1]/6h[8:1],4h[8:1]/5h[8:1],4h[8:1]/5h[8:1],
{4}3h[8:1]/4h[8:1],3h[8:1]/4h[8:1],4h[8:1]/5h[8:1],4/5,
{16}3,,3,,7,,7,,2,8,2,8,1>7[2:1],7,1,7,
{4},,8-4[8:1],8b/1bpp7[2:1],
{8}5h[2:1],,,,,,8,8,
{16}8h[16:3],,,1h[16:3],,,2,,2-5[8:1],,,,8qq2[2:1],,,,
{8}4h[2:1],,,,,,1,8,
{16}7h[16:3],,,6h[16:3],,,5,,5-1[8:1],,,,4qq6[2:1],,,,
{8}8h[2:1],,,,,,5,4,
{16}3h[16:3],,,2h[16:3],,,1,,1-5[8:1],,,,7,,,,
{8}6-4[8:1],,3/6,2-5[8:1],,2/6,7-3[8:1],,
{8}2/7,1v6[8:1],,1/7,8-3[8:1]*-5[8:1],,8,,
{16}2b/6b,,,,7/8,,7,8,6,,3/4,,2,,5/6,,
{16}7h[8:1]/8xh[8:1],,,4xh[8:1]/5h[8:1],,,1x/2,,3/8,,4/7,,6,5,6,,
{16}4/7,,,,1/8,,2,1,3,,5/6,,7,,3/4,,
{16}1xh[8:1]/2h[8:1],,,4h[8:1]/5xh[8:1],,,7/8x,,1/6,,2/5,,3,4,3,,
{16}2/5,,,,7/8,,6,5,7,,1/2,,3,,7/8,,
{16}5xh[8:1]/6h[8:1],,,1xh[8:1]/8h[8:1],,,3/4x,,2/5,,1/6,,7,8,7,,
{8}1/6,5,3/4,2,1/8,7,5/6,,
{16}5h[8:1]/7h[8:1],,,2h[8:1]/4h[8:1],,,3/6,,1-5[8:1],8,3,6,1,,,,
{1}8bh[2:7]/4b>5[4:7]p4[2:3],
{1},
{1},
{8},,,,,,E7,E6,
{8},,,,,,E3,E4,
{8},,,,,,E6,E7,
{8},,,,,,E4,E3,
{4},,,3/6,
{4}1xh[4:5],7,7,8,
{8}2,,3,,2/4,2h[4:1]/4h[4:1],,,
{4}7xh[4:3],8,8,6,
{8}5h[4:1]/7h[4:1],,,,4/8,4/8,,,
{8}2x/4,2,3x/5,3,4x/6,4,5x/7,5,
{8}4/8x,8,3/7x,7,2/6x,6,1/5x,,
{16}2x,4,2,4,3x,5,3,5,4x,6,4,6,5x>6[2:1],7,5,7,
{2},5w1[8:1],
{16}3b/7b,,2,1,3,,7,8,6,,3,4,3,4,2,,
{48}1/8,,,,,,7,,,5,,,7,,,5,,,7,,,,,,4/6,,,,,,4/6,,,,,,3,,5,,3,,5,,,,,,
{16}2/6,,7,8,6,,2,1,3,,4/5,,2/7-5[8:1],,1/8-4[8:1],,
{8}7-3[8:1],8-2[8:1],7<5[8:1],8,7,8,2b/5bx,,
{16}1/6,,7,8,6,,2,1,3,,6,5,6,5,7,,
{48}1/8,,,,,,2,,,4,,,2,,,4,,,2,,,,,,3/5,,,,,,3/5,,,,,,6,,4,,6,,4,,,,,,
{16}3/7,,2,1,3,,7,8,6,,4/5,,7/2>5[8:1],,8/1<6[8:1],,
{8}2-6[8:1],1-5[8:1],2-4[8:1],1,2,1,4bx/8b,,
{16}2/6,,3,4,2,,6,5,7,,5-3[8:1]/6-1[8:1],,4/7,,5/6,,
{24},,,3-8[8:1]/4-6[8:1],,,2/5,,,3/4,,,,,,7h[8:1],,,8,1,2,3,,,
{16}5/6,,6,5,7,,1,8,2,,3-8[8:1]/7-4[8:1],,4/8,,3x/7x,,
{16},,1x>4[8:1]/5x<8[8:1],,2/6,,1x/5x,,,,4x/8x,,7,5,6,4,
{8}5-1[8:1],5,3-8[8:1],3,7-3[8:1],7,1-5[8:1],1,
{16}6-1[8:1],,6,,4-8[8:1],,4,,6,,6,,1,5,1,5,
{8}1V37[16:3],,6,8-4-7-5[4:1],,5,3,1,
{32}1h[4:1],,,,,,,,5,6,7,8,1,2,3,4,5-2[8:1]*-8[8:1],,,,,,,,5b,,,,,,,,
{16}1,1,1,1,2b/8b-6[8:1],,,,4/8-2[8:1],,4,,5/8<5[8:1],,5,,
{24}4/8-4[8:1],,,4,,,3/8,,,3,,,2/5,,,2/5,,,3,4,3,4,,,
{2}5/3>5[4:1],4V28[6:1]-6[12:1],
{2}5<3[4:1],4-8[8:1],
{8}7b/1b-4[8:1],,6/1-7[8:1],6,5/1>3[8:1],5,4/1<7[8:1],4,
{24}5/1-5[8:1],,,5,,,1/6,,,6,,,4/7,,,4/7,,,6,5,6,5,,,
{2}4/6<4[4:1],5V71[6:1]-3[12:1],
{2}4>6[4:1],5-1[8:1],
{8}3b/7bp3[8:1],,1v4[8:1],1,5q1[8:1],5,3<6[8:1],3,
{24}2-6[8:1],,,2,,,8>3[8:1],,,8,,,5,,,,,,6-1[8:1],4,6,4,,,
{8}2q6[8:1],2,8v5[8:1],8,4p8[8:1],4,6>3[8:1],6,
{8}7-3[8:1],7,1<6[8:1],1,2,3,4,5,
{8}6/7,6/7,5/6,5/6,4/5,4/5,3/4,3/4,
{8}2/3,2/3,1/2,1/2,1/8,1/8,7/8,7/8,
{16}1,6,1,6,2,7,2,7,3,8,3,8,4,1,4,1,
{32}5v2[8:1]*v8[8:1],,,,,,,,,,,,,,,,7,6,5,4,3,2,1,8,3pp8<2[2:7]/7qq2>8[2:7],,,,,,,,
{1}3b/7b,
{1},
{1},
{1},
{8}E8,,,E7,,,E6,,
{16},,,,,,B3,,B6,,,B4,,,B5,,
{8}E4,,,E3,,,E2,,
{16},,E1,,,,,,E3/E7,,,,1-5[8:1],7,3,5,
{24}1b,C1f,,,,,,,,,,,,,,,,,,,,,,,
{1},
{1},
{1},
E
Re:MASTER
最終更新:2026年04月08日 23:08