アットウィキロゴ

DANGEROOOOUS JUNGLE

アーティスト Laur

BPM BASIC ADVANCED EXPERT MASTER Re:MASTER
160 4 7+ 11+ 13+ -

EXPERT MASTER Re:MASTER
譜面制作者 Luxizhel はっぴー -

BASIC


ADVANCED


EXPERT


MASTER

(160)
{1},
{32}3/6,,,,,,4/5,,,,,,4/5,,,,E5,E4,E3,E2,E1,E8,E7,E6,E5,,,,,,,,
{1}8h[4:3]/2-4[16:3]v6[16:5],
{1}1h[4:3]/7-5[16:3]v3[16:5],
{1}8h[4:3]/2-6[16:3]-3[16:3]-5[8:1],
{1}1h[4:3]/7-3[16:3]-6[16:3]-4[8:1],
{8}2,2,3h[4:3]/8-4[8:1]-6[8:1],,,,,,
{8}7,7,6h[4:3]/1-5[8:1]-3[8:1],,,,,,
{8}2,2,3/8-4[8:1],,,,2/5,,
{8}3/6,,4/7,,5/6,3/4,2/5,,
{4}1x/2x,1x/2x>5[4:1],5<8[4:1],8>3[4:1],
{4}3<6[4:1],6,1,1/8,
{4}7x/8x,8x/7x<4[4:1],4>1[4:1],1<6[4:1],
{4}6>3[4:1],3,8,1/8,
{4}1x/2x,1x/2x-6[4:1],6V48[4:1],8>3[4:1],
{4}3V57[4:1],7,1,1/8,
{4}7x/8x,8x/7x-3[4:1],3V51[4:1],1<6[4:1],
{4}6V42[4:1],2,8,1/8,
{4}5/3-1[8:1],3/4,4/6-8[8:1],5/6,
{8}5/3-1[8:1],,3/4,,4/7h[4:1],,5,4/6,
{4}5/3-1[8:1],3/4,4/6-8[8:1],5/6,
{8}8x/2x-4[8:1],,1/2,,5/7,5/7,6/4-2[8:1],4/6,
{8}5-7[8:1],5,3-1[8:1],3,6-8[8:1],6,4-1[8:1],4,
{8}5-8[8:1],5,3-8[8:1],3,6-1[8:1],6,2,2,
{32}3,,5,,3,,5,,4,,6,,4,,6,,4,3,2,1,8,7,6,5,4,3,2,1,8,7,6,5,
{8}4,,1/7,1/7,2b-8[8:1]/6b-8[8:1],,2-4[8:1]/6-4[8:1],,
{24}2/6,,,,,,7,6x,5x,2,3x,4x,7,6x,5x,2,3x,4x,8bh[4:1],,,,,,
{24}A1/D1/D2,,,,,,1,2x,3x,7,6x,5x,1,2x,3x,7,6x,5x,1bh[4:1],,,,,,
{24}D1/A8/D8,,,,,,8,7x,6x,2,3x,4x,8,7x,6x,2,3x,4x,8bh[4:1],,,,,,
{24}1,2x,3x,6,5x,4x,2,3x,4x,7,6x,5x,3,4x,5x,8,7x,6x,1b,,,,,,
{16}2/4-8[8:1],2/4,,,4/5,,6,,7/5-1[8:1],5/7,,,4/5,,3,,
{16}2/4-8[8:1],2/4,,,4/5,,6,,1h[16:1]/8h[16:1],,1h[16:1]/8h[16:1],,1/8,,,,
{16}7/5-1[8:1],5/7,,,4/5,,3,,2/4-8[8:1],2/4,,,4/5<4[4:1],,,,
{4}1b,,3x-1b[8:1]/6x-8b[8:1],3b/6b,
{8}4h[16:1]/8<5[8:1],4h[16:1],4h[16:1]/8>3[8:1],4h[16:1],4h[16:1]/8-4[8:1],4h[16:1],4/8,,
{8}5h[16:1]/1>4[8:1],5h[16:1],5h[16:1]/1<6[8:1],5h[16:1],5h[16:1]/1-5[8:1],5h[16:1],1/7bx,,
{8}4h[16:1]/8<5[8:1],4h[16:1],4h[16:1]/8>3[8:1],4h[16:1],4h[16:1]/8-4[8:1],4h[16:1],8/4-2[8:1],,
{16}4x/7x-3[8:1],,,,1b/7b,,,,E2f,E6f,E3f,E7f,E4f,,,,
{16}7x,5,6x,5,7,5x,6,5,8x,5,6,5,1b,,,,
{16}2x,4,3x,4,2,4x,3,4,1x,4,3,4,8b,,,,
{16}7x,5,6x,5,7,5x,6,5,8x,5,6,5,1b,,,,
{32}B3/A3/B4/E4/A4/D4f,,,,,,,,C1h[4:1],,,,,,,,E1,E2,E3,E4,E5,E6,E7,E8,E1f,,,,,,,,
{16},,,,,,,,,,,,,,4,5,
{16}4,5,4,5,4,5,4,5,4,5,4,5,3x,,,,
{8}1/2h[4:1],,8,8,7h[4:1]/8,,1,1,
{8}1/2h[4:1],,8,8,8/7<4[8:1],,1,1,
{8}1/3h[4:1],,8,8,6h[4:1]/8,,1,1,
{8}1/3h[4:1],,8,8,6/8,,5/6,,
{8}8/7-4[8:1],,1/7,1,1/2-5[8:1],,2/8,8,
{8}8/7-4[8:1],,1/7,1,1/2-5[8:1],,2/8,8,
{8}6/8,6/8,1>6[4:1],1,7,,8-4[8:1],,
{16}8w4[8:1],,,,,,,,2x/6x,2x/6x,2x/6x,2x/6x,2xs6[4:3]/6xs2[4:3],,,,
{1},
{12}7,5,6,2,4,3,7h[4:1],,,5b-2[8:1]*-8[8:1],,,
{16}5x,,,,3,5,4,4,3,5,4,4,4-1[8:1]*-7[8:1],,,,
{16}4x,,,,6,4,5,5,6,4,5,5,5-2[8:1]*-8[8:1],,,,
{16}5x,,,,3,5,4,4,3,5,4,4,4,4,4,4,
{16}3,5,4,4,4,4,4,4,3,5,4,4,4-1[8:1]*-7[8:1],,,,
{16}4x,,,,6,4,5,5,6,4,5,5,5-2[8:1]*-8[8:1],,,,
{16}5x,,,,3,5,4,4,3,5,4,4,4,,,,
{16}3/7,,6,4,5,5,5,,2/6,,3,5,4,4,4,,
{12}6bx,7bx,8bx,1bxs5[8:3],2bx,3bx,,,,,,,
{8}6h[1:1],5,5,5,5,5,5,4,
{8}3h[1:1],4,4,4,4,4,5,6,
{8}7h[1:1],6,6,6,6,5,4,3,
{8}2h[1:1],3,3,3,4,5,6,7,
{8}8h[8:1],7h[8:1],6h[8:1],5h[8:1],4h[8:1],3h[8:1],2b,,
{8}1h[8:1],2h[8:1],3h[8:1],4h[8:1],5h[8:1],6h[8:1],7b,,
{16}8,8,7,7,6,6,5,5,4,4,3,3,2,2,1,1,
{8}8b,,3-5[8:1]/7-5[8:1],2/8,3-1[8:1]/7-1[8:1],,3b/7b,,
{8}1/2,1/2,3/4,5/6,7/8,7/8,5/6,3/4,
{16}3,5,3,5,4,6,4,6,5v2[8:1],,,,5/6,,,,
{16}3,5,3,5,1,5,1,5,3,5,3,5,1,5,1,5,
{16}3,5,3,5,1,5,1,5,7,5,7,5,1,5,1xh[8:1],,
{16}6,4,6,4,8,4,8,4,6,4,6,4,8,4,8,4,
{16}6,4,6,4,8,4,8,4,2b,4b,2b,4b,8b,,,,
{4}2-6[8:1],2/5-2[8:1],5/1V35[8:1],1/6-1[8:1],
{16}6/4V28[8:1],,,,7x-2[8:1],7x,,,3/7,,,4,4,,1/2,,
{32}3/4q8[8:1],,,,2/5,,,,3/4,,,,,,1,2,3,,6,,,,4/7,,4/7,,,,2/5,,,,
{8}8b,,2-8[8:1]/6-8[8:1],3/5,2-4[8:1]/6-4[8:1],,2b/6b,,
{16}3,5,3,5,1,5,1,5,7,5,7,5,1,5,1,5,
{16}3,5,3,5,1,5,1,5,7,5,7,5,1,5,1xh[8:1],,
{16}6,4,6,4,8,4,8,4,2,4,2,4,8,4,8,4,
{16}6,4,6,4,5p4[4:1],,,,C1,,,,,,,,
{4}1b-7b[8:1]/2b-4b[8:1],1b-5b[8:1]/2b-6b[8:1],1b/2b,B1/A1/B2/E2/A2/D2/B3/A3/B4/E4/A4/D4f,
{4}7b-5b[8:1]/8b-2b[8:1],7b-3b[8:1]/8b-4b[8:1],7b/8b,B5/A5/B6/E6/A6/D6f/B7/A7/B8/E8/A8/D8,
{32}1/2,,,,,,,,3/4,,,,5,,5,,6,,6,,7,,7,,8,1,2,3,4,5,6,7,
{32}8,,,,,,,,C1h[4:1],,,,,,,,D1,D8,D7,D6,D5,D4,D3,D2,D1f,,,,,,,,
{16},,,,,,,,A4,,,D5,,,A5,,
{1},
{1},
{1},
E

Re:MASTER


名前:
コメント:

タグ:

+ タグ編集
  • タグ:
最終更新:2026年04月11日 19:53