BASIC
ADVANCED
EXPERT
MASTER
(252){1},
{1},
{12},,,,,,1/8,,2,1,,3/4,
{12},,4/5,,,5/6,,,7,8>6[4:7],,,
{2}6x,6,
{2}7,7,
{6}8,1,8,2,4,3,
{6}7,5,6,4h[3:1],,3h[3:1],
{12},,2h[3:1],,,,E2,E1,E8,E7,E6,E5,
{3}2h[3:1],4h[3:1],5h[3:1],
{12}7,,,,,,E5/6h[4:1],E4,E3,E2,,,
{12}A4/7h[4:1],A3,A2,A1,,,8,,7,,6,,
{3}B2/E3/5,B6/E7/3,B4/E5/7,
{12}1x,,1,7,,7,3,,3,5,,5pp4[12:7],
{12},,,E2f,,,,,,2,,2,
{12}4,,4,3,,5/6,,,7,8,,1h[3:1]/6,
{4},8,3/4,2/5,
{12}7/8,,7/8,,,2b/6b,,,3,4,,,
{12}2x/5,,5,4,,4,7,,7,3,,3,
{12}5,,5,4,,4,7,,7,1,,1,
{12}8,,8,2,,2,4,,4,3,,3,
{12}6,,6,5,,5,7,,7,4,,4,
{4}6h[4:1],8h[4:1],1h[4:1],3h[4:1],
{12}4,,,3,5,4,6,,5x/6,,,4/8x-4[6:1],
{12},,,2xh[4:1],,,5,,5,3,,3,
{12}7,,7,1,,2b/8b,,,6,5/6,,,
{4}2-4[6:1],8,7-5[6:1],1,
{4}2-5[6:1],8,7-4[6:1],1,
{4}2-6[6:1],8,7<4[4:1],4>1[4:1],
{4}1<6[4:1],6>3[4:1],3,1,
{12}4x/5x,,4x/5x,6x,7,8,1x,2,3,4x/5x,,4x/5x,
{12}3x,2,1,8x,7,6,E5,,,,,,
{1}C1f/B2/E3/B6/E7,
{2}1/8,2/7,
{6}3h[6:1],5,4,6,5,7,
{2}6<4[3:2],5,
{6}6h[6:1],4,5,3,4,2,
{2}3>5[3:2],4,
{6}2h[6:1],4,3,5h[6:1],4,6,
{6}3h[6:1],5,4,6h[6:1],5,7,
{6}4h[6:1],6,5,7,6,8,
{1}5<4[3:2],
{6}E7,,2,4,3,3,
{6}B5,4,4,6>4[6:1],,,
{6}E3,,7,5,6,6,
{6}B4,5,5,3<5[6:1],,,
{12}7h[4:1],,,8,,1/7,,,4/5,,,2/8,
{12},,6,5,,3,4,,2/5,,2/5,,
{1}1bx/7bp4[1:1],
{4},,3>5[2:1],C1f,
{12},,,8x,,,7-4[6:1],,1,7x,,,
{12}2-5[6:1],,8,2x,,,7<4[6:1],,1,7x,,,
{12}2>5[6:1],,8,2x,,,7-3[6:1],,1,7x,,,
{12}2-6[6:1],,8,2x,,,7V51[3:1],,1,7x,,,
{12}2h[4:1],,,8,,7/3v8[6:1],,,3/5>6[2:1],,,1xh[3:1]/5,
{4},,1,2/8,
{12}4/5,,,7,5,6,4,,4,8,,8,
{12}2,,2,6,,6,8,,8,7x/1x>4[4:1],,,
{12}4<7[4:1],,,7>2[4:1],,,2>4[6:1],,,7,,7x-3[6:1],
{4},3x-8[6:1],8x-4[6:1],2xq6[6:1],
{12}2x,,,8,,,1x/7x,,,5-7[6:1],,4,
{12}5x,,,2-4[6:1],,1,2x,,,6/7,,,
{12}5h[4:1],,,6,,4/7,,,2,1>4[6:1],,7,
{12}1<6[6:1],,,1,,,3,3,5xh[12:7],1bh[2:1],,,
{12},,,,,2,8,,8,1,,7/2-6[6:1],
{4},8x,5/7>5[2:1],C1f,
{12},,,1x,,,2-5[6:1],,8,2x,,,
{12}7-4[6:1],,1,7x,,,3>8[6:1],,5,3x,,,
{12}6<1[6:1],,4,6x,,,2-6[6:1],,1,2x,,8xh[4:1],
{12},,2,3,4,5w1[6:1],6,,5x,,,,
{12}3/7h[4:1],,,5,,4/6,,,2-4[6:1],1,,2x/8,
{12},,7-5[6:1],8,,1/7x,,,1-5[6:1],8,,1x,
{12},,7,3,,1h[4:1]/5,,,7,6,5,4,
{12}2,,2,4,,4,6,,6,8,,8,
{4}7x/1x>4[6:1],6-1[6:1],2-5[6:1],8<5[6:1],
{4}3x-6[6:1],7-2[6:1],4-8[6:1],5,
{4}2xh[6:1],B1/E1,7xh[6:1],B5/E5,
{4}4xh[6:1],B2/E3,5xh[6:1],B6/E7,
{12}3h[4:1],,,4,,2/5,,,7,8<5[6:1],,2,
{12}8>3[6:1],,,8,,,6,6,4,8bh[4:3],,,
{12},,,A3,A4,A5,A6,,,,,,
{4}7,6,5,4,
{1}3h[2:3],
{2}E5,5h[2:1],
{1}4h[2:3],
{2}E5,6h[2:1],
{2}4h[2:1],5h[2:1],
{2}3h[1:1],E5,
{1}4h[1:1],
{1}5h[1:1],
{12}7,,5,7,,,4/7,,5,7,,,
{12}4/6,,5,6,,,4/6,,5,6h[4:1],,,
{12}4,,5,4,,,4/5,,6,4h[2:1],,,
{12}5,,,5,,,4/5,,3,5,,,
{12}3/5h[4:1],,,3,,,3/4,,5,3,,,
{12}2/5,,4,2,,,2/4h[6:1],,,2qq7[2:3],,,
{1}5h[1:1],
{1},
{1}5/6,
{4}4/5,,,3/4,
{2},2h[2:1],
{2}4h[2:1],5h[2:1],
{2}7h[1:1],B6,
{2}2h[1:1],B3,
{2}5h[1:1],E5,
{6}2,3,4,7,6,5,
{2}E7/4,B7/E7/4,
{2}B8/E8/4,B8/E8/A8/4,
{2}B1/A1/E2/5,B1/E2/5,
{2}B2/E3/5,E3/5,
{1}4qq1[1:1]/5pp8[1:1],
{4},,2-6[12:1]/7-3[12:1],C1f,
{1},
{6}7/8,,1/2,,3/7,4/6,
(189){8}5b-7[8:1],,3-5[8:1],,8,7,5,6,
{16}7V53[16:3],,1,,7,,,,2,,,,2,8,2,8,
{8}1v4[8:1]*v6[8:1],,1,,7h[4:1],5,4h[4:1],5,
{16}6,,6,5,7,,4,,3/5,,2,,1/8,,E7,,
{8}E6,C1,E4,E3,A6,A5,A4,A3,
{8}6h[4:1],5,4,2h[4:1],5,6,8h[4:1],5,
{8}4,2,3/7-3[8:1],,7/1>4[8:1],,1/8<5[8:1],,
{4}8/2-6[8:1],2/8,1bh[1:1]/7bh[4:3],,
{8},,,,,,5b/6b,4b/8b,
{8},A3,C1,A7,,,2h[4:1]/8h[4:1],,
{8},3h[4:1]/7h[4:1],,,(252)4/6,,5,,
{12}2/4,,,3,,,4/5,,,6,5,7,
{12}5,,,3,4,2,4,,5,,6,,
{6}4,3,2,6,7,8,
{3}8h[1:1],3,5,
{12}7,6,5,4,3,2,1h[1:1]/7,,,,5,,
{6},3>5[12:5],,,,,
{12}E5/3h[4:1],E6,E7,E8,,,A5/2h[4:1],A6,A7,A8,,,
{12}1,,2,,3,,4x/7bx,6,5,4,1bx,8,
{12}7,6,3bx,2,1,8,3b/7b,,,,,,
{4},,5w1[6:1],C1f,
{12},,,3/7,,7,1,,1,8,,7/2>5[4:1],
{12},,5<8[4:1],,,8>3[4:1],,,,3,,,
{4}5,7/8,2/3,5/6,
{4}3-8[6:1]/7-4[6:1],3b/7b,,4/1>4[6:1],
{12}1/8<5[6:1],,,5/8,,,2x,4,3,7x,5,6,
{12}1x,3,2,8x,6,7h[12:7],,,,,,,
{12}8q1[2:7],1,2,3,,,,,,,,,
{1},
{1},
{1},
E
Re:MASTER
最終更新:2026年04月12日 14:03