アットウィキロゴ

あいたい星人

アーティスト DECO*27

BPM BASIC ADVANCED EXPERT MASTER Re:MASTER
150 3 6 9+ 13 -

EXPERT MASTER Re:MASTER
譜面制作者 はっぴー じゃこレモン -

BASIC


ADVANCED


EXPERT

(150)
{1},

{4}6h[4:7],4,4,5,
{4}5,4,5,4,
{4}2hx[1:2],5,5,4,
{4}4,5,4,5,
{4}6h[4:7],4,4,5,
{4}5,4,5,4,
{4}2hx[4:3],4,4,5pp4[2:1],
{1},

{2}1h[4:1]/2h[4:1],{4}34,56,
{2}7h[4:1]/8h[4:1],{4}56,34,
{2}1h[4:1]/2h[4:1],{4}35,46,
{2}1h[2:1]/8h[2:1],{4},1x/8x,

{4}12,57,78,{8}2,2h[4:1],
{8},4,,46,,7,7,5,
{8},78,{4}78,57,24,
{16}1x/2x,,,1x/8x,,,7x/8x,,{8},16,{4}16,
{2}3>8[4:1]/4p7[4:1],{4},56,
{2}5q2[4:1]/6<1[4:1],{4},34,
{4}2h[4:1],4h[4:1],5h[4:1],7h[4:1],
{4}1h[4:1],4-8[4:1],{2},

{4}17,17,28,28,
{16}46,,,37,,,37,,{8},5,{4}5,
{4}46,46,35,35,
{16}17,,,26,,,26,,{8},8,{4}8,
{2}1q6[4:1]/2>5[4:1],{4},78,
{2}7<4[4:1]/8p3[4:1],{4},12,
{2}2h[4:1]/4h[4:1],5h[4:1]/7h[4:1],
{4}24,7-3[4:1]/5-1[4:1],{2},

{2}2h[2:1],4h[2:1],
{2}6h[2:1],8,
{2}7h[2:1],5h[2:1],
{2}3hx[2:1],1,

{4}28,7h[4:1],5,2h[4:1],
{4}4,6h[4:1],8,17,
{4}17,2h[4:1],4,7h[4:1],
{4}5,3h[4:1],1,35,
{4}35,6h[4:1],8,3h[4:1],
{4}1,7h[4:1],5,46,
{4}46,3h[4:1],1,6h[4:1],
{4}8,2h[4:1],4,35,

{2}5h[4:1]/6-1[4:1],{4},34,
{2}3v8[4:1]/4h[4:1],{4},56,
{2}5h[4:1]/6-2[4:1],{4},34,
{2}4-1[4:1]/5-8[4:1],{4},1x/8x,

{4}78,24,12,{8}7,7h[4:1],
{8},5,5,6,,47,,25,
{8},1,{4}1,24,57,
{16}7x/8x,,,1x/8x,,,1x/2x,,{8},38,{4}38,
{2}2p5[4:1]/6<1[4:1],{4},28,
{2}3>8[4:1]/7q4[4:1],{4},17,
{4}6h[4:1],8h[4:1],1h[4:1],3h[4:1],
{4}5h[4:1],8p4[4:1],{2},

{8}28,28,{4}28,{8}17,17,{4}17,
{16}35,,,26,,,26,,{8},4,{4}4,
{8}35,35,{4}35,{8}46,46,{4}46,
{16}28,,,37,,,37,,{8},1,{4}1,
{2}3q8[4:1]/7<4[4:1],{4},35,
{2}2>5[4:1]/6p1[4:1],{4},46,
{2}5h[4:1]/7h[4:1],2h[4:1]/4h[4:1],
{4}46,35,{2}E4/E5f/E6,

{1}5V71[2:1]/6h[4:3],
{1}3h[4:3]/4V27[2:1],
{1}5-8-3[2:1]/6h[4:3],
{1}3h[4:3]/4-8-5[2:1],
{4}6h[1:2],E6,E7,E8,
{4}E1,E2,E3,E4,
{4}3h[1:2],B4,B3,B2,
{4}B1,B8,B7,B6,

{1}Ch[1:1]f,
{1},

{2},{4},{8}18,18,
{8},24,,57,,1x/8x,{4}1bx/8bx,
{4}7h[4:1],5h[4:1],4h[4:1],2h[4:1],
{16}1,,,38,,,47,,{8},25,{4}25,
{2}3<6[4:1]/7>2[4:1],{4},3x/5x,
{2}2<7[4:1]/6>3[4:1],{4},4x/6x,
{4}7h[4:1],8,2h[4:1],1,
{4}45,1-3[8:1]/8-6[8:1],{2},

{8}24,24,{4}24,{8}57,57,{4}57,
{2}4>1[4:1]/8<5[4:1],{4},26,
{8}57,57,{4}57,{8}24,24,{4}24,
{2}1>4[4:1]/5<8[4:1],{4},37,
{2}3-6[4:1]/7>2[4:1],{4},3x/5x,
{2}2<7[4:1]/6-3[4:1],{4},4x/6x,
{4}2,13,7,68,
{4}56,5V31b[4:1]/6v8b[4:1],{2},

{8}2,2,{4}1,{8}3,3,{4}24,
{8}7,7,{4}8,{8}6,6,57,5x/7x,
{8},8h[4:1],,6,{4}6h[4:1],4h[4:1],
{4}2h[4:1],8w4b[4:1],{2},
{2}2<7[4:1]/6q3[4:1],{4},4x/6x,
{2}3p6[4:1]/7>2[4:1],{4},3x/5x,
{4}2h[4:1],1,7h[4:1],8,
{4}56,5>2[4:1]/6v1[4:1],{2},

{2}1h[4:1]/2h[4:1],7h[4:1]/8h[4:1],
{16}17,,,35,,,2b/6b,,
E

MASTER

(150)
{1}Chf[2:1],

{4}6hx[1:2],{8}5,5,{4}4,{8}3,3,
{4}4,{8}5,5,{4}4,{8}3,3,
{4}2hx[4:7],{8}4,4,{4}3,{8}4,4,
{4}5,6>3[4:1],{2},
{4}18,3h[4:7],7v6[4:1],,
{4},{8}5,5,{4}4,{8}6,6,
{4}7hx[1:1],{8}5,5,4,4,3,3,
{4}2,{8}15,1/5<8[4:1],,2x,{4}2x,

{16}3h[16:3],,,4h[16:3],,,5p1[4:1],,{8},7,{4}7x,
{16}6h[16:3],,,5h[16:3],,,4q8[4:1],,{8},2,{4}2x,
{16}3h[16:3],,,4h[16:3],,,5p1[4:1],,{8},7,{4}7x,
{16}68,,,45,,,13,,{8},2b/8b,{4}2b/8b,

{16}1x/7x-3[8:1],,,8,{8}7,2,{16}2-6[8:1],,,1,{8}2,7,
{16}7-3[8:1],,,8,{8}7,1-5b[8:1],5-2b[8:1],1,,7,
{16}7-3[8:1],,,8,{8}7,2,{16}2-6[8:1],,,1,{8}2,7,
{16}5x/7x,,,4x/5x,,,2x/4x,,{8},12,{4}1<4[4:1]/2p3[4:1],
{4},{8},1b/2b,,78,{4}7q6[4:1]/8>5[4:1],
{4},{8},7b/8b,,12,3,4,
{4}5/7<3[4:1],{8}2,2,1-5[8:1],1,6,7,
{8},8-6b[8:1],{4}1-3b[8:1],,45,

{8}1x/7x,28,1>4[8:1]/7,28,{4}1<6[8:1]/7,1,
{16}35,,,18,,,4/6-4-7[4:1],,{8},1,1,1,
{8}2x/8x,17,2/8<5[8:1],17,{4}2/8>3[8:1],8,
{16}46,,,18,,,35,,{8},12,{4}1<4[4:1]/2p3[4:1],
{4},{8},1b/2b,,78,{4}7q6[4:1]/8>5[4:1],
{4},{8},7b/8b,,12,{4}12,
{4}4-8[8:1]/5,{8}6-2[8:1],6,3-7[8:1],3,8,8,
{8},6<2b[8:1],{4}2v4b[8:1],{2},

{4}2h[4:1],1h[4:1],8h[4:1],7h[1:1],
{1}6qq2[2:1],
{4}3h[4:1],4h[4:1],5h[4:1],6h[4:1],
{2}7pp3[16:9],6>3[16:1],

{4}2hx[4:1],{16}3,3h[16:3],,,4,4h[16:3],,,5,5h[16:3],,,
{16}6,6h[16:3],,,7,7h[16:3],,,{4}8>4[4:1],6,
{4}7b,{16}8,8h[16:3],,,7,7h[16:3],,,{4}6-2[8:1],
{4}5,{16}4,4h[16:3],,,3,3h[16:3],,,{4}2s6[8:3],
{2},{16}7x,7h[16:3],,,8,8h[16:3],,,
{16}1,1h[16:3],,,2,2h[16:3],,,{4}3<7[4:1],8,
{4}1b,{16}2,2h[16:3],,,1,1h[16:3],,,8,8h[16:3],,,
{2}7>4[4:1]*-4[4:1],{4},6h[1:2],

{2}5x-8[8:1],1-4[8:1],
{4}5,5,8,8b,
{8}25,5,36,6,47,7,{4}58,
{16}7,1,7,1,8,2,8-4[8:1],,{8},{16}3x,2x,{4}1x,

{16}2xq6[8:1]/7x,,,1,{8}2,7,{16}7p3[8:1],,,8,{8}7,2,
{16}2q6[8:1],,,1,{8}2,8-4b[8:1],4-7b[8:1],8,,2,
{16}2q6[8:1],,,1,{8}2,7,{16}7p3[8:1],,,8,{8}7,2,
{16}2x/4x,,,4x/5x,,,5x/7x,,{8},78,{4}7qq6[4:1]/8>5[4:1],
{4},{8},7b/8b,,12,{4}1<4[4:1]/2pp3[4:1],
{4},{8},1b/2b,,78,1,2,
{4}3/6<2[4:1],{8}5,5,4-8[8:1],4,7,6,
{8},1-3b[8:1],{4}8-6b[8:1],,45,

{8}3x/8x,16,3/8<5[8:1],16,{4}3/8>3[8:1],8,
{16}46,,,18,,,3-5-2[4:1]/5,,{8},8,8,8,
{8}1x/6x,38,1>4[8:1]/6,38,{4}1<6[8:1]/6,1,
{16}35,,,18,,,46,,{8},78,{4}7qq6[4:1]/8>5[4:1],
{4},{8},7b/8b,,12,{4}1<4[4:1]/2pp3[4:1],
{4},{8},1b/2b,,78,{4}78,
{4}4-8[8:1]/5,{8}6-2[8:1],6,3-7[8:1],3,8,8,
{8},6<2b[8:1],{4}2v4b[8:1],{2},

{2}1hx[4:1],2h[4:1]/8h[4:1],
{2}7h[4:1]/Cf,4h[4:1]/6h[4:1],
{2}1h[4:1]/7h[4:1],3h[4:1]/5h[4:1],
{2}2h[4:1]/Cf,1h[4:1]/8h[4:1],
{4}7xp3[2:1],{12}1,1,1,{2}1h[4:1],
{4}2xq6[2:1],{12}8,8,8,{2}8h[4:1],
{4}4h[2:1],1,5h[2:1],8,
{4}3h[4:1],1h[4:1],8h[4:1],6h[4:1],

{1}4w8[2:1],
{1}B1/B2/B3/B4/B5/B6/B7/B8/Cf,

{2},{4},{8}27,8-4[8:1]/1-5[8:1],
{8},8>3[8:1]/1<6[8:1],,18,,45,1b/2b,1-5[8:1]/2,
{8},18,7,6,7-3[8:1],8-2[8:1],{4},
{16}4x,,,4x/5x,,,5x/7x,,{8},78,{4}7p5[4:1]/8>5[4:1],
{4},{8},3b/7b,,12,{4}1<4[4:1]/2q4[4:1],
{4},{8},2b/6b,,78,6,5,
{4}3>7[4:1]/4,{8}6,6,5-1[8:1],5,2,3,
{8},7-5b[8:1],8-2b[8:1],,{4},34,

{8}1x/5x,48,1>4[8:1]/5,48,{4}1<6[8:1]/5,1,
{16}34,,,18,,,5-1-3[4:1]/6,,{8},7,7,7,
{8}4x/8x,15,4/8<5[8:1],15,{4}4/8>3[8:1],8,
{16}56,,,18,,,34,,{8},12,{4}1<4[4:1]/2q4[4:1],
{4},{8},2b/6b,,78,{4}7p5[4:1]/8>5[4:1],
{4},{8},3b/7b,,12,3,4,
{4}5-1[8:1]/6,{8}7-2[8:1],7,3-7[8:1],3,5,5,
{8},6-2b[8:1],2-6b[8:1],,{4},48,

{16}7x,5,7,5,7,5,{8}7,46,27,35,24,
{16}2,4,2,4,2,4,{8}2,35,27,46,5b/7b>2[8:1],
{8},3<6[8:1],,1,{4}8-5[8:1],{8}5,4,
{4}3-8b[8:1],6-1b[8:1],2,3xqq2[4:1]/4x<1[4:1],
{4},{8},3b/4b,,56,{4}5>8[4:1]/6pp7[4:1],
{4},{8},5b/6b,,34,2,1,
{4}7/8-4[8:1],{8}6-2[8:1],6,3-7[8:1],3,8,8,
{8},{16}6,4,6,4,5,3,{2}4w8[8:1],

{2}2h[4:1]/6h[4:1],3h[4:1]/7h[4:1],
{16}28,,,45,,,17,,
E

Re:MASTER


名前:
コメント:

タグ:

+ タグ編集
  • タグ:
最終更新:2026年01月10日 15:53