| アーティスト |
からとP⍺ոchii少年 feat.はるの |
BASIC
ADVANCED
EXPERT
MASTER
(165)
{4},,,35,
{16}26,,7,8,,8,7,,16,,2,,35,,6,,{4}3-8[8:1]/7-4[8:1],,15,46,
{16}73,,2,1,,1,2,,83,,7,,6<2[4:1],,5,,2<6[4:1],,,3x,,,4x,,4x,,,,
{4}1-5[8:1]/2-5[8:1],12,8-4[8:1]/7-4[8:1],87,12,{8}38,38,56,56,48,,25,25,
3V14[4:1]*pp4[4:1]/4,,,,,,35,,47,47,5pp5[4:1]b*qq5[4:1]b/6,,,,,,
{16}2-5[8:1],,,1,1,,8,,7-4[8:1],,,8,8,,1,,2,,3,,4,,35,,3/5-1[8:1],,,,56,,,,
7-4[8:1],,,8,8,,1,,2-5[8:1],,,1,1,,8,,7,,6,,5,,64,,64,,,,71,,,,
26,,,,4,5,3,,25,,,18,,,47,,{12}6,5,7,3,4,2,15,,,37,,,
{16}7,6,5,4,7,6,5,4,7,6,5,4,8,,,,{8}28,7,6>3[8:1]/4,,1b,,,,
{8}4/7h[4:1],,5,5,6,,17,,7<2[4:1]b/8xpp1[4:1],78,,,,,1x/2x,,
5/2h[4:1],,4,4,3,,24,,3x>6[4:1]b/4xpp5[4:1],34,,,,,8x/7x,,
6-8[8:1]*-1[8:1],,,,3-1[8:1]*-8[8:1],,,,6h[4:1],,8h[4:1],,1,,24,,
{16}2,4,3,,3,,24,,5,,6,,4/7-3[4:1],,,,{8}3xqq6[4:2],2x,1x,1xh[8:3],,,,,
{16}47,,6,5,6,5,7,,3,4,3,4,2,,6,5,7,,3,4,3,4,2,,7,5,7,5,6,,3x,,
52,,3,4,3,4,2,,6,5,6,5,7,,3,4,2,,6,5,6,5,7,,3,4,3,4,
{8}2-4[8:1]*-5[8:1],2,,,7-5[8:1]*-4[8:1],7,,,2,2,
4h[8:1]/3h[8:1],,2h[8:1]/1h[8:1],,8h[8:1]/7h[8:1],,6h[8:1]/5h[8:1],,
7,82,35,46,7-3[8:1],7,1,1,4,36,8<4[4:1],,1b/8b,,3>6<3[4:8]b,,
{1}Cf,E5,6z2[4:3]b,{8}1h[4:2],,,,3,4,25,,
{16}25,,3,3,4,,6,6,5,,2,2,4,,7,7,5,,3,3,4,,6,6,5,,4,,3b/5b,,,,
3,6,4,5,3,6,4,5,3,6,1b,8b,4xh[8:1]/5xh[8:1],,,,24,,,75,,,36,,{24}2,3,4,7,6,5,2,3,4,7,6,5,
{16}1b,,7,8,,2,1,,38,,7,,4-7[8:1]/6,,5,,{8}3-8[8:1]/4,,1>6[4:1]/3,,14,,8,8,
{16}47,,6,5,,3,4,,25,,1,,7>3[4:1],,5,,3>7[4:1],,,5x,,,4x,,4x,,,,
{8}2-4[8:1]/1-5[8:1],3,,,7-5[8:1]/8-4[8:1],6,,,1>5[4:1],1,5<1[4:1],,1,,5,,2h[4:1]/6,5,
{4}4-1-3[4:1],3pp4[4:1],,1x,3qq4[4:1]/5pp4[4:1],35,,2x/6x,
{16}6x,3,8,3,6x,3,8,4,6x,4,8,4,6x,4,8,4,6x,8,5,8,6x,8,5,8,6x,5,8,,57,,54,,
3x,6,1,6,3x,6,1,5,3x,5,1,5,3x,5,1,5,3x,1,4,1,3x,1,4,1,3x,4,1,,42,,45,,
{8}6<1[8:1],,5,,3>8[8:1],,4,,6,6,35,35,{24}7,6,5,2,3,4,8b,,,,,,
{16}4,5,4,5,3V14[4:1]*pp4[4:1],4,3,4,{8},,,,5qq5[4:1],5,5pp5[4:1],,,,1b>7[4:1],,
{16}6h[4:1],,,,,,,,7h[8:1]/8h[8:1],,,1h[8:1]/6h[8:1],,,34,,2,1,2,1,3,8,3,8,4,,,57,,,35,,
2,4,3,,18,,7,5,6,5,6,5,7>2[4:1],5,7,5,,,,,4-2-8-6[4:1],,4,,5,,,,,,,,
28,,,,7,5,6,,34,,,46,,,37,,{12}2,1,3,7p3[8:1],8,6,,,,1x,,,
{16}1,2,3,4,8,7,6,5,{32}A2,E3,E4,A4,A7,E7,E6,A5,{8}1b,,
28,46,3-8[8:1]/7-4[8:1],,3x/7x,,1b>8[4:7],,
{1},,8<5[4:3],1>4[4:3],
{2}7h[4:2],5h[4:2],4h[4:2],2h[4:2],
8h[4:4],1h[4:2],{4},,,,,,,
{16}2b/8b,,4b/6b,,3b/7b,,6-8[8:1],4-2[8:1],,6,4,,,,1x,,
{8}2/8-4[8:1],37,4/8>3[8:1]*<5[8:1],,8w4[8:1],,,,35,26,
{16}26,,7,8,,2,1,,37,,37,,4>7[4:1]b,,5,,7>4[4:1]b,,,4x,,,5x,,5x,,,,
{8}5v2[8:1]/6-1[8:1],7,56,,4v7[8:1]/3-8[8:1],2,43,,56,56,47,3,2v5[8:1]/8<5[8:1],28,,,
{4}3-1[8:1]/7,3pp1[4:1],,8,2>3-5[8:1]b/8<7-5[8:1]b,2v5[8:1]b/8v5[8:1]b,28,2b/8b,
{8}1-7[8:1],,1-3[8:1]/4,,1-7[8:1]/5,5,1-3[8:1]/5,,1-7[8:1]/4,4,1-3[8:1]/4,,15,6,47,,
8-2[8:1],,8-6[8:1]/5,,8-2[8:1]/4,4,8-6[8:1]/4,,8-2[8:1]/5,5,85,,84,,
{24}2,3,4,7,6,5,2,3,4,7,6,5,
{16}1b,,,,2,1,2,,38,,,57,,,24,,{12}3b,2,1,8b,7,6,5b-1[8:1],,,58,,,
{16}2,1,2,1,3,8,3,8,{32}4,3,2,1,8,7,6,5,{8}4,,36,36,2b>5[8:1]/5b<8[8:1],,2b/5b,,,,E
Re:MASTER
最終更新:2026年04月11日 19:25