アットウィキロゴ

enchanted wanderer

アーティスト linear ring

BPM BASIC ADVANCED EXPERT MASTER Re:MASTER
102 3 7 12 13+ -

EXPERT MASTER Re:MASTER
譜面制作者 みそかつ侍 アマリリス -

BASIC


ADVANCED


EXPERT


MASTER

(102)
{4}4h[4:1],B4,3h[4:1],B3,
{4}2h[4:1],B2,1h[4:1],B1,
{4}8h[4:1],B8,7h[4:1],B7,
{4}6h[4:1],B6,7h[4:1],5,
{24}6,,6h[8:1],5h[12:1],,,{4},{24}4,,4h[8:1],5h[12:1],,,{4},
{24}3,,3h[8:1],4h[8:1],,,{8},34,{24}5,,5h[8:1],4h[8:1],,,{8},45,
{24}6,,6h[8:1],5h[12:1],,,{4},{24}3,,3h[8:1],4h[12:1],,,{4},
{24}6,,6h[8:1],5h[8:1],,,{8},45,{24}3,,3h[8:1],4h[8:1],,,{8},18,

{8}2>4[12:1],8h[12:1],{4},{8}6<8[12:1],4h[12:1],{4},
{8}2>4[12:1],8h[12:1],{4},{8}7p3[12:1],1h[12:1],{4},
{24}2>4[12:1],,2,{8}1h[12:1],{4},{24}5<7[12:1],,5,{8}4h[12:1],{4},
{24}1>3[12:1],,1,{8}8h[12:1],{4},{24}3>1-7[6:1],,3,{8}4h[12:1],{4},
{4}5h[8:7],{8}A8,B2,B7,E4,E6,A4,
{24}4,,4,{8}6h[8:1],{24}3,,3,{8}5h[8:1],{24}2,,2,{8}4h[8:1],{24}1,,1,{8}3h[8:1],
{4}7h[8:1],4h[8:1]/8h[8:1],1h[8:1]/5h[8:1],2h[8:1]/6h[8:1],
{24}3,,3,4,,4,5,,5,6,,6,7,,7,{8}8,7-4[12:1]/2-5[12:1],18,

{4}2x/7x,{24}1x-5[8:1],2,3,1x,8,7,{4}1x,{24}7x,5,6,4x,6,5,
{4}7h[4:1],{8}5w1[8:1],28,{4}5x,{12}7h[4:1],B3,C,
{4}B7,{48}6-3[12:1]/A4,D4,A3,D3,A2,D2,A1,D1,A8,D8,A7,,{4},{8}12,{24}35,,18,
{4}1h[8:1]/8h[8:1],{24}8x-3[12:1],7x,6x,5x,4x,3x,{4}8x<5[12:1],8xw4[12:1],
{4}8x,{24}4,,5,3,,4,2,,5,3,,3,{8}5<1[12:1],46,
{4}1-5[12:1]/5x,1x/5w1[12:1],5xb,{8}2h[12:1]/8h[12:1],37,
{8}1hx[4:1]/6x>3[8:1],8,{4},{8}3x<6[8:1]/8hx[4:1],1,{4},
{8}2x<7>2[4:1]/5hx[4:1],4,{4},{8}6-3[12:1],5,{4}3,

{8}1-5[12:1]/2,1/8-6[12:1],{4},{8}3-6[12:1],6-3[12:1],{4},
{8}7-4[12:1],1-3-8qq4[2:1]/8,{4},{2},
{8}5-1[12:1],4-2[12:1]/5,{4}3,{8}7>1p5[24:5],56,{4}4,
{8}2>5[12:1],1/8-6-1-5-2-4[24:11],{4},{2},
{8}2qq7[4:1],3q6[4:1],{4},,{8}8-4[12:1],17,
{4}8x>3[12:1],8x<5[12:1],8xw4[12:1],8x,
{4}4b-8[2:1]/6b,{8}D1,D8,D7,D6,{4}D5,
{4}2b/8b-4[2:1],{8}D5,D4,D3,D2,{4}D1,
{4}5bh[8:1]/6b-3[12:1],{8}C,E3,{4}1bh[8:1]/2b-7[12:1],{8}C,E7,
{8}3-6[12:1],7-2[12:1],3x,7x,5-2[12:1],1-6[12:1],5x,1x,

{1}1xV35V71[4:13]*>1[4:13],
{1},
{1},
{2},{4},4z8b[12:1]/5s1b[12:1],

{2}4b/5b,B1/B2/B3/B4/B5/B6/B7/B8/Cf,
{4}A5/A6/B5/B6/E6/Cf,A3/A4/B3/B4/E4/Cf,{2}A1/A8/B1/B8/E1/Cf,
{4}3-1[12:1],4-8[12:1],5-7[12:1],{8}1,1,
{4}6-8[12:1],5-1[12:1],4-2[12:1],{8}8,8,
{8}4-2[12:1],5-7[12:1],4-8[12:1],5-1[12:1],4-2[12:1],5-7[12:1],4,5,
{12}3>1[12:1],4,4,3x/6<8[12:1],5,5,6x/E2,E3,E4,E8,E7,E6,

{4}4<7[12:1],3x/4x>1[12:1],4x/5x,{24}8,,5,6,,4-6<8q6[24:7],
{2}5h[2:1],{4},{12}56,34,12,
{4}8h[4:1],{48}4<2[6:1],D4,A3,D3,A2,D2,A1,D1,A8,D8,A7,,{4},{8}3x,24,
{4}4h[8:1]/6h[8:1],{24}5x<8[12:1],4,5,3x,5,2,{4}5x>2[12:1],5xs1[8:1],
{4}5x,{24}2x,3,4,1x,8,7,{8}2x/6z2[8:1],3,{4}4>8[12:1],
{4}4x<8[12:1],4xw8[12:1],4x,{8}1h[12:1]/7h[12:1],26,
{8}4x>1[12:1]/7hx[4:1],5,{4},{8}2hx[4:1]/5<8[12:1],4,{4},
{24}1,,1,8,,8,1>4[8:1]*<5[8:1],,1,{8}8,{4},{24}45,,2,{8}8,

{8}7v5[12:1]/3v1[12:1],15,{4},{8}6v7[12:1]/2v3[12:1],37,{4},
{8}4-2[12:1]/8-6[12:1],6>5v7[6:1]/2<1v3[6:1],{4},,{8}18,27,
{8}6<8q5[8:1]/3<4-1[8:1],25,{4},{8}5>4-7[8:1]/2<8p3[8:1],36,{4},
{8}6v4[8:1]/2v8[8:1],4<7[8:1]/8>3[8:1],{4},{8},1,48,26,
{8}3-8[8:1]/4-7[8:1],7q5[6:1]/8>4[6:1],{4},,4>8b[12:1],
{48}4bx<8b[12:1],A3f,D3,A2,D2,A1,{8},{48}4b>8b[12:1],A5f,D6,A6,D7,A7,{8},{48}4bx,A3f,D3,A2,D2,A1,{8},{4}1x/7x,
{4}2b-6[2:1]/4bh[8:1],{8}D6,D7,D8,D1,{4}D2,
{4}5bh[8:1]/7b-3[2:1],{8}D4,D3,D2,D1,{4}D8,
{4}5b-2[12:1]/6bh[8:1],{8}C,E2,{4}1b-6[12:1]/2bh[8:1],{8}C,E6,
{24}6-1[12:1],,6,2-5[12:1],,2,{4},{24}1<6[12:1],,1,5>2[12:1],,5,{4},
{1}Ch[4:1],
E

Re:MASTER


名前:
コメント:

タグ:

+ タグ編集
  • タグ:
最終更新:2026年01月11日 22:17