アットウィキロゴ

Ether Second

アーティスト Akira Complex

BPM BASIC ADVANCED EXPERT MASTER Re:MASTER
150 4 7+ 11+ 13+ -

EXPERT MASTER Re:MASTER
譜面制作者 はっぴー サファ太 -

BASIC


ADVANCED


EXPERT


MASTER

(150)
{1},
{4}3h[8:15]/5x,5,5,5,
{4}4h[8:1],4h[8:1],5h[8:1],5h[8:1],
{4}4x/6h[4:7],4,4,4,
{8}5h[8:1],,5h[8:1],,4h[8:1],,4,7x,
{4}3h[4:7]/6b,6,5,5,
{4}4h[8:1],5h[8:1],4h[8:1],5<3[12:5]>5[24:11],
{8}4x,,4,,4,,3,3h[4:1],
{16},,4,,,1/8,,,5/7,,,4/5,,,2/4,,
{4}2h[4:3]/4V61[3:1],,,1,
{8}3h[4:3]/1-6[8:1]-4[24:5],,,,,,4,5,
{4}6h[4:3]/4>2[8:1]-8[24:5],,,8,
{8}6h[4:3]/8-2[8:1]>4[24:5],,,,,,4,8x,
{16}5h[8:1]/7h[8:1],,,4h[8:1]/6h[8:1],,,3h[8:1]/5h[8:1],,,2h[8:1]/4h[8:1],,,1h[8:1]/5h[8:1],,,2h[8:1]/6h[8:1],
{16},,3h[8:1]/7h[8:1],,,4h[8:1]/8h[8:1],,,3h[8:1]/7h[8:1],,,2h[8:1]/6h[8:1],,,2/6,,
{16}3,3,5,5,4,4,6,6,1,1,7,7,2,2,8,8,
{32}1,2,3,4,5,6,7,8,1,2,3,4,5,6,7,8,1>4[8:1]/5v8[8:1],,,,,,,,,,,,,,,,
{16}7,5,7,5,6,4,6,4,5,4,6,5,7xh[4:1],,,,
{16}4,6,4,6,3,5,3,5,4,5,3,4,2x,,2x,,
{16}3,4,3,4,2,5,2,5,3,4,2,5,3xh[4:1],,,,
{16}4,3,4,3,5,4,5,4,6,5,7,4,8,,1x/7x,,
{16}2,4,2,4,3,5,3,5,2,4,3,5,2xh[4:1],,,,
{16}5,3,5,3,6,4,6,4,5,3,6,4,7x,,7x,,
{16}6,5,6,5,7,4,7,4,6,5,7,4,6xh[4:1],,,,
{16}8,7,8,7,2,1,2,1,3-1b[8:1],4,2,,3x/5x,,,,
{16}2,4,2,4,3,4,3,4,5,4,5,4,3xh[4:1],,,,
{16}6,4,6,4,5,4,5,4,3,4,3,4,5x,,4x/6x,,
{16}3,5,3,5,3,4,3,4,3,2,3,2,3,,2/4,,
{16}1,5,2,4,3,5,4,6,5,7,4,8,3,,1x/7x,,
{16}5b,3,4,3,2,3,2,3,4,3,5,3,4,,2/5,,
{16}3b,6,4,6,5,6,7,6,7,6,5,6,4,,3/5,,
{16}2x,4,3,4,5,4,5,4,2x,4,3,4,2,,5/1-5[8:1],,
{8},1b<6[8:1],,1b>4[8:1],,1b,,5b/8b,
{16}4h[16:1]/7h[16:1],,4h[16:1]/7h[16:1],,5/6,,4,4,6-4[8:1],2,,2,6,,3,,
{16}2/5,,2/5,,3/4,,6,5,7-4[8:1],4,,4,3/7,,,,
{16}2h[16:1]/5h[16:1],,2h[16:1]/5h[16:1],,3/4,,5,5,3-5[8:1],7,,7,3,,6,,
{16}4/7,,4/7,,5/6,,3,4,2-6[8:1],5,,5,2,,8x,,
{16}5h[16:1]/7h[16:1],,5h[16:1]/7h[16:1],,4/6,,7,5,8<5[8:1],3,,3,8,,1,,
{16}2/4,,2/4,,3/5,,6,5,7-3[8:1],4,,4,3/7,,,,
{16}2h[16:1]/4h[16:1],,2h[16:1]/4h[16:1],,3/5,,2,4,1>4[8:1],6,,6,1,,8-6[8:1],,
{8},8/5b-1[8:1],,5/2b-4[8:1],,2/8b,,6x,
{16}5b/7b,,,,3,4,2,4,3-8[8:1]-2[8:1],5,,5,3,,4,,
{16}4h[8:1],,3h[8:1],,5,,6,5,7-4[8:1]-6[8:1],4,,4,7,,1,,
{16}1b,,,,6,5,7,5,6-1[8:1]-7[8:1],4,,4,6,,5,,
{16}5h[8:1],,6h[8:1],,4,,3,4,2-5[8:1]-3[8:1],5,,5,2,,8x,,
{16}8b,,,,3,4,2,4,3-8[8:1]-2[8:1],5,,5,3,,4,,
{16}6b,,6,,1/6,,7,8,6-1[8:1]-7[8:1],5,,5,6,,2x,,
{16}4bh[4:1],,,,7,5,6,5,8bh[4:1],,,,1,1,8/2-6[8:1],,
{8},2/5b-1[8:1],,5/4b-8[8:1],,4/7b,,1b/5b,
{48}1x/5x,,,,,,3,,,2/4,,,,,,6,,,5/7,,,,,,4,,5,,3,,4h[8:1],,,,,,2,,,,2,,,,2,,,,
{1}C1h[1:4]/2<6[4:3]q4[4:3],
{1},
{1}3<7[4:3]p1[4:3],
{1},
{4}B8/A8,B2/A2,B7/A7/1xh[4:1],B5/A5,
{4}B6/A6/2xh[4:1],B4/A4,B5/A5/1xh[4:1],B3/A3,
{16}B6/E6/1x,,1,,B3/E4/1x,,1,,B7/E7/1x,,1,,C1/1x,,1,8,
{16}1,8,2,7,3,6,4,5,3,4,2,5,1,6,8,7,
{96}1,,,,,,1,,,,,,7,,,6,,,5h[16:1],,,,,,,,,,,,1,,,2,,,3h[16:1],,,,,,,,,,,,8,,,7,,6h[96:7],,,,,,,,,,,,,2,,,3,,,4h[16:1],,,,,,,,,,,,3/5,,,6,,,7,,,8,,,
{2}1h[8:3]/5h[8:3],1-6[8:1]/5-2[8:1],
{16}7b/3-8[8:1],,4/6,,3-5[8:1],5,,5,3>8[8:1],,7,,3,5,,5,
{16}2,,3/7,,8-6[8:1],5,,5,8-4[8:1],,3,,8<5[8:1],5,,5,
{16}8b,,3,,2-5[8:1],4,,4,2-8[8:1],,7,,2-5[8:1],4,,4,
{16}2,,7,,7,5,6,5,8,4,5,4,7,3,4,3,
{16}6b-1[8:1],,2/5,,6-4[8:1],4,,4,6<1[8:1],,2,,6,4,,4,
{16}7,,2/6,,1-3[8:1],4,,4,1-5[8:1],,6,,1>4[8:1],4,,4,
{16}1b,,6,,7<4b[8:1],8,,8,7b,,1,,3,4,3,4,
{16}1b,4,3,5,1b,6,5,7,1b,8,2,7,3bV16[4:1]/6b-4b[8:1],,,,
{4}6V83[4:1],4-1b[8:1],4qq1[4:3],1x,
{4}8,7<4b[8:1],7x,3V57[4:1]/7-4b[8:1],
{4}7bV13[4:1],4-8b[8:1],4,3>8[8:1]/8<5b[8:1],
{96}3/8,,,,,,,,,,,,,,,,,,,,,,,,5h[12:1],,,,,,,,8,,,,1,,,,2,,,,3,,,,4b/8b,,,,,,,,,,,,,,,2b/6b,,,,,,,,,,,,,,,4b/5b,,,,,,,,,,,,,,,,,,
{4}3b-5b[8:1]/6bV83[4:1],3V16[4:1],5-8b[8:1],5pp1[8:5],
{16}1x,,,,2-5b[8:1],,3x,,2,,,,4/8,,7,5,
{16}7b,5,6,4,5,3,4,2,5b,1,6,2,7,3,7,3,
{32}7b,6,5,4,3,2,1,8,7bx,6,5,4,3,2,1,8,3b/7x,4,5,6,7,8,1,2,3bx-7[8:1],4,5,6,7,8,1,2,
{384}3x/8bx-2[32:7]-4[16:3]-6[16:3]*>8b[4:3]>1[8:1]>2[8:1]>3[8:1]<4[8:1]<5[8:1]<6[8:1],C1f,,,,,,,,,,,,,,,,,,,,,,,,,,,,,,,,,,,,,,,,,,,,,,,,,,,,,,,,,,,,,,,,,,,,,,,,,,,,,,,,,,,,,,,,,,,,,,,,,,,,,,,,,,,,,,,,,,,,,,,,,,,,,,,,,,,,,,,,,,,,,,,,,,,,,,,,,,,,,,,,,,,,,,,,,,,,,,,,,,,,,,,,,,,,,,,,,,,,,,,,,,,,,,,,,,,,,,,,,,,,,,,,,,,,,,,,,,,,,,,,,,,,,,,,,,,,,,,,,,,,,,,,,,,,,,,,,,,,,,,,,,,,,,,,,,,,,,,,,,,,,,,,,,,,,,,,,,,,,,,,,,,,,,,,,,,,,,,,,,,,,,,,,,,,,,,,,,,,,,,,,,,,,,,,,,,,,,,,,,,,,,,
{1},
{1},
{1},
E

Re:MASTER


名前:
コメント:

タグ:

+ タグ編集
  • タグ:
最終更新:2026年04月12日 13:07