BASIC
ADVANCED
EXPERT
MASTER
(174)
{1},
{1},
{4}1x/8x,7,6<8[8:1],5,
{8}4,,3,4,2,,1x/8x,,
{4}2,3>1[8:1],4,5,
{8}6,5,7-3[8:1],,1b/7b,,,,
{8}3,3,4,2,6,6,5,7,
{8}4,5,3,3,4,2,6,6,
{8}5,7,3,3,4,2,1-4[8:1]/8-5[8:1],1/8,
{8},,C1f/B2/B7,,,,,4h[4:1]/6h[4:1],
{8},,4h[2:1]/6h[2:1],,,,,3x/7x,
{16},3xV15[16:5]/7x,,,8h[2:1],,,,,,,,,,5h[4:1]/7h[4:1],,
{16},,,,4h[4:1]/6h[4:1],,,,,,3h[16:3]/5,,,4,3,,
{8}2/5pp4[8:3],,1h[2:1],,,,,2h[4:1]/4h[4:1],
{8},,3h[2:1]/5h[2:1],,,,,2x/6x,
{16},2x/6xV84[16:5],,,1h[2:1],,,,,,,,,,2h[4:1]/4h[4:1],,
{8},,3h[4:1]/5h[4:1],,,2/6,3-6[8:1]/7-2[8:1],4/8,
{8},,8b,,2h[4:1]/6-1[8:1],,,3,
{16}4/5,,6,5,7h[4:1],,,,8,,,5/6,,,3/4,,
{16}2/5,,,,6h[8:1],,4,6h[8:1],,4,7h[8:1],,5,8h[8:1],,6,
{16}6,7,5,,3h[8:1],,5,3h[8:1],,5,2h[8:1],,4,1h[8:1],,3,
{16}3,2,4,3,5<8[8:1],,,,1-5[8:1]/5,,,,1/8,,7,,
{16}4/6,,3,4,2h[4:1],,,,1,,,3/4,,,5/6,,
{16}4/7,,2/5,,3x,4,3,4,3x,4,3,4,2x,5,2,5,
{16}1x,8,1,8,5x,6,5,6,5x,6,5,6,4x,7,4,7,
{16}1xw5[8:1],8,1,8,,,,,3/7,,6,5,,7,8,,
{16}3,4,2,,6,5,6,5,7,4,7,4h[16:3],,,6,,
{8}3/5<4[8:3],2/4,C1f,,,,,4x/5x,
{16}3x/6x,,7,7,5,,4/6,,4/6,,3,4,2h[8:3],,,7h[16:3],
{16},,,2x/7x,,4xh[16:1]/5xh[16:1],,,3/6,,7,5,6,,2-6[8:1],,
{8}2,8-4[8:1],8,3-7[8:1],3,6,6,1h[4:1],
{16},,5x,,2,4,2,4,2,4,2,4,3,5,3,5,
{16}3,5,3,5,4,6,4,6,5,7,5,7,4,6,3,5,
{16}2,4,1,1,,6,5,,3,4,,2/5,,,1/8,,
{16}1h[16:3]/8,,,3h[16:3],,,4,,5,5,,,,3,4,,
{16}6,5,,4/7,,,1/8,,1/8h[16:3],,,6h[16:3],,,5,,
{16}4,4,,,,6,5,,3,4,,2/5,,,1/8,,
{16}1h[16:3]/8,,,3h[16:3],,,4,,5,5,,,,7,8,,
{16}6,5,,3b/4b,,2,1,,3,4,,5b/6b,,7,8,,
{16}6,5,,3,4h[4:1],,,,C1f,,,,8,,,,
{16}8,,1xq5[8:1],,1x-6[8:1],,,,,,,,8,,2x,3x,
{8}4x/8,,8,B5/E5,7h[4:3],B3/E3,1x,1,
{8}2,3,4,4h[8:5],8-3[8:1],,8-6[8:1],,
{4}8,5qq3[8:1],5pp7[8:1],5,
{8}1,,1,,3/6,7,5x/8,,
{4}3x/8,1x/8,3b/6b,1,
{16}1,,8xp4[8:1],,8x-3[8:1],,,,,,,,1,,7x,6x,
{8}1/5x,,1,B4/E5,2h[4:3],B6/E7,8x,8x,
{8}7,6,5,4,1x-6[8:1]/4h[2:1],1x,1x-3[8:1],,
{8}1x,,5x-7[8:1],5x,5x-3[8:1],,5x,6x,
{16}2x/7x,,2x/7x,,6,5,4,3,4,5,6,7,1-5[8:1]/8-4[8:1],,3/6,,
{16}1x/8x,,,,,,4/5,3/6,2-6[8:1]/7-2[8:1],,2/7,,2b<5[4:1]/7b,,,,
{8}4,4,,3,2x/5x,,3/7,6,
{16}5-8[8:1],,5,,5>2[8:1],,4,,5<8[8:1],,6,,2x,3x,4xh[8:1],,
{16},,3,4,5,,2-6[8:1],,4,,2b/5-8[8:1],,,,4-1[8:1]/5b,,
{8},4b/8xh[4:1],,1x,2,3/6V82[8:1],,5,
{8}5,4>1[8:1],,6,6,7V13[8:1],,4,
{8}4,5-1[8:1],,5/8<5[8:1],,1h[4:1]/8,,5,
{8}6,7,8,4-8[8:1],3,2-6[8:1]/4b,,2b/5w1[8:1],
{32},,,,5b,,,,,,,,2x/8x,,,,3x/7x,,,,4,5,6,7,8,1,2,3,4,5,6,7,
{8}C1f/8x,,1x/8x,2x-8[8:1]/7x,,6h[4:1],,5>2[8:1]*<8[8:1],
{8},5x,,2x/8x,3x/7x,4x/6x,1b,,
{16}B4/E4/6b,,,B5/E6/3b,,,B4/E5/8b,,,B5/B6/1b,,,B3/E3/7b,,,B6/E6/2b,
{16},,B1/E2/5b,,,E1/B8/4b,,,6<8[8:1],5,4,,,,3,,
{8}3,2/4,2/4,1pp4[8:3]/5,,6,6,7,
{8}7,8,8qq5[8:3],,4,4,3,2,
{24}1,,,5,,,6-3[8:1],,,4x,,,4x,,,,2x,,,,8x,,,,
{4}2b/6b,7h[4:1],5h[4:1],4h[4:1],
{8}2,2,5,3,6,,7h[4:1],,
{8}5h[4:1],,4h[4:1],,2,2,5,3,
{8}E4/6,7,8,1,2,3,E4/6,7,
{8}8,1,2,3,E4/6h[32:1],7h[32:1],8h[32:1],1h[32:1],
{8}2h[32:1],3h[32:1],E4/6h[16:1],7h[16:1],8h[16:1],1h[16:1],2h[16:1],3h[16:1],
{8}5,5,5<7[8:1],,5xpp8[2:1],,4,4,
{16}4,,4,,4,,4,3,2/8,,8,,8,,4/8,,
{4}4/8-6[8:1],3/8-4[8:1],2/8-5[8:1],1,
{8}2,2,2,3/5,4,5,6,6z2[8:3],
{8}6,,,,1h[4:3],,8-4[8:1],4,
{8},,5-1[8:1],6,C1,,,,
{8}E8/1-5[8:1],,,E7,4x,4x,E4/5-8[8:1],,
{8},E3,2x,2x,E2/8-5[8:1],,,E1,
{8}2x,2x,C1/4<7[8:1],,,E5,,,
{8}E2/8-4[8:1],,,E3,5x,5x,E6/4-1[8:1],,
{8},E7,7x,7x,E8/1-4[8:1],,,E1,
{8}7x,7x,C1/5>2[8:1],,,E5,,,
{8}E6/4-8[8:1],,,E7,1x,1x,E2/8-5[8:1],,
{8},E3,3x,3x,E4/5-8[8:1],,,E5,
{8}3x,3x,C1/2<7[8:1],,,E1,,,
{8}E4/5-1[8:1],,,E3,8x,8x,E8/1-4[8:1],,
{8},E7,6x,6x,E6/4-1[8:1],,,E5,
{8}6x,6x,C1/7>2[8:1],,,E1,,,
{16}1-5[8:1],2,3,4,5-2[8:1]*v8[8:1],,,,,,,,1-5[8:1],2,3,4,
{16}5-1[8:1]*-7[8:1],,,,,,,,1-5[8:1],2,3,4,5-2[8:1]*v8[8:1],,,,
{16},,,,1-5[8:1],8,7,6,5-2[8:1]*-8[8:1],,,,,,,,
{16}8-4[8:1],7,6,5,4-7[8:1]*v1[8:1],,,,,,,,8-4[8:1],7,6,5,
{16}4-2[8:1]*-8[8:1],,,,,,,,8-4[8:1],7,6,5,4-7[8:1]*v1[8:1],,,,
{16},,,,8-4[8:1],1,2,3,4,,,,2/6,,,,
{16}5-1[8:1],6,7,8,1-6[8:1]*v4[8:1],,,,,,,,5-1[8:1],6,7,8,
{16}1-3[8:1]*-5[8:1],,,,,,,,5-1[8:1],6,7,8,1-6[8:1]*v4[8:1],,,,
{16},,,,5-1[8:1],4,3,2,1-4[8:1]*-6[8:1],,,,,,,,
{16}4v7[8:1],3,2,1,8x,,8x,,8x,,8x,,4-8[8:1],3,2,1h[1:0],
{16}8-4[8:1]*-6[8:1],,,,,,,,4-8[8:1],3,2h[1:0],1h[1:0],8-5[8:1]*q4[8:1],,,,
{16},,,,B3,B4,B6,B5,C1xh[8:1],,,,8-4[4:9],,8h[8:19],,
{1},
{1},
{1},
{1},
{1},
E
Re:MASTER
最終更新:2026年04月11日 21:29