BASIC
ADVANCED
EXPERT
MASTER
(160)
{1},
{4},,,3q5[2:1],
{4}6h[2:1],,,6p4[2:1],
{4}3h[2:1],,,3qq5[2:1],
{4}6h[2:1],,,5/6,
{4}4b/5b,,3,2h[4:3]/4,
{4}E2,E3,E4,7h[4:3],
{4}E8,E7,E6,4h[4:3],
{4}E4,E3,E2,E1,
{4}A4/E5/A5,C1f/B2/B3/B6/B7,,,
{8}2h[4:1]/8h[4:1],,,1/7,1h[4:1]/7h[4:1],,,6/8,
{8}6h[8:5]/8<4[4:1],,,,,2,2,,
{8}3h[16:3]/4h[16:3],,,3/4,2h[16:3]/5h[16:3],,,2/5,
{8}4/3<6[4:1],,,,,7,7,,
{8}1h[4:1]/7h[4:1],,,2/8,2h[4:1]/8h[4:1],,,1/3,
{8}3h[8:5]/1>5[4:1],,,,,7,7,,
{8}5h[16:3]/6h[16:3],,,5/6,4h[16:3]/7h[16:3],,,4/7,
{4}5/6>3[4:1],,,2,
{4}3/4h[4:5],3,5,5,
{16}3,,,,3,,,,3,4,,4,3,,,,
{4}5h[4:5]/6,6,4,4,
{16}6,,,,6,,,,6,5,,5,7,,,,
{16}6,,6,,6,,6,5,4,,4,,4,,4,3,
{16}2,,2,,2,,2,1,8,,8,,1/7,,1/7,,
{32}2,,6,,2,,6,,3,,7,,3,,7,,E5,E6,E7,E8,E1,E2,E3,E4,E5,E6,E7,E8,E1,E2,E3,E4,
{1}C1f/E5,
{8}1/8,,2,3,4/7,6,2/5,3h[2:1],
{16},,4,,4,,4,,4,3,4,,2,1,2,,
{8}8/3>8[8:1],,3/7<4[8:1],6,7/1-5[8:1],2-6[8:1],1,2,
{16},,4/8,,7,,6,,3/5,,2/4,,7,8,7,,
{8}1/6<1[8:1],,6/2x>5[8:1],3,2/8-4[8:1],7-3[8:1],8,7,
{16},,1/5,,2/4,,2/4,,6,5,,4/7,4bx/7bx,,,,
{8}5/2>5[8:1],,2/6<1[8:1],7,6/4-8[8:1],3-1[8:1],4,3,
{16},,7,,1/7,,2/8,,3,4,,6,5,,4/6,,
{8}2/8,7,2/6,3,4/6,7,1/8,2,
{8}3h[8:1]/4h[8:1],,5h[8:1]/6h[8:1],,1/8,1/8,2/7,,
{8}3b/8bx-2[8:1],,4/8x-6[8:1],4,4/8x-2[8:1],4,4h[8:1]/8x-6[8:1],,
{8}8x-2[8:1],5,5/8x-6[8:1],5,5h[8:1]/8x-2[8:1],,4h[8:1]/8x-6[8:1],,
{8}4/8x-2[8:1],,5/8x-6[8:1],5,5/8x-2[8:1],5,5h[8:1]/8x-6[8:1],,
{16}8x,,,,4/5,,3,,2/5,2/5,,4/7,4b/7b,,,,
{8}6/1x-7[8:1],,5/1x-3[8:1],5,5/1x-7[8:1],5,5h[8:1]/1x-3[8:1],,
{16}1x,,6,,4/5,,3,,2/5,2/5,,4/7,4b/7b,,,,
{16}1/5,,,,1,,2/8,,7,5,,2,4,,1/8,,
{4}2>5[8:1],8<5[8:1],1-5[8:1],1b,
{8}8<3[2:1],,C1,,,2,2h[2:1],,
{8}3pp7[2:1],,,,,1,1,,
{8}8<3[2:1],,C1,,,2,2,,
{16}1h[4:1],,,,7,,7,8,,8,7,,1/6,,,,
{8}7<2[2:1],,C1,,,1,1h[2:1],,
{8}2pp7[2:1],,,,,8,8,,
{8}6p3[2:1],,C1,,,1,1,,
{16}2/4,,,,5,,5,4,,4,6,,5/7,,,,
{4}5h[4:5]/6,6,4,3,
{16}4,,,,6,,,,6,5,,4/7,4/7,,,,
{4}3/4h[4:5],3,5,6,
{16}5,,,,3,,,,3,4,,2/5,2/5,,,,
{16}3,,3,,3,,3,4,5,,5,,5,,5,6,
{16}7,,7,,7,,7,8,1,,1,,2/8,,2/8,,
{32}7,,3,,7,,3,,8,,4,,8,,4,,E1,E2,E3,E4,E5,E6,E7,E8,E1,E2,E3,E4,E5,E6,E7,E8,
{1}C1f/E1,
{16}1/8,,,,,,7,7,7h[4:1],,5,,2h[4:1],,4,,
{4}8-5[8:1]*-6[8:1],8-2[8:1]*-3[8:1],8-4[8:1],8,
{16}1bh[4:1]/2bh[4:1],,,,,,2,4,3,,4/5,,5/6,,4/7,,
{16},,2,2,1,,3,3,4,,1,1,8,,,,
{16}7bh[4:1]/8bh[4:1],,,,,,6,5,6,,3/4,,1/2,,3/8,,
{16},,7/8,,1/6,,2,4,3,,6,5,6,,,,
{8}3x/4,2,5/6x,7,2x/4,1,7x/8,1/6x,
{16}2/5x,,3,,4x/6,,4/6,,7x,8,,8,7x,,1/6,,
{16}1,1,8,8,7,7,6,6,5,5,4,4,3,3,2,2,
{8}1bx,,2bx/4,,3bx/5,1/7,2b-6[8:1]/6b-1[8:1],,
{8}6/2>5[8:1],,2/8-4[8:1],1,8/2qq7[8:3],,2/6>3[8:1],7,
{8}6,,1/5,,3/4,2,7/8,6,
{16}1/5,,3,4,2-8[8:1],4,3,,5/2-4[8:1],,6,6,2qq6[4:1],7,7,,
{16}2b,,,,5,,,,4/8,,,2/6,2-5[8:1]/6-1[8:1],,1/5,,
{8}2/6>3[8:1],,6/2<7[8:1],1,2/6xV85[4:1]-1[8:1],,6/2x-4[8:1],3,
{8}2,,4/8,,5/6,7,1/2,3,
{16}4/8,,6,5,7-1[8:1],5,6,,4/7-5[8:1],,3,3,7pp3b[4:1],2,2,,
{16}7b,,,,4,,,,1/2,1/2,,7/8,7/8,,,,
{8}5h[2:3]/3-6[8:1],,,,6x,6x,6x,6x,
{24}6bh[4:1],,,,,,,,,,,,6-1[8:1],7,8,1,2,3,4b/6b,,,,,,
{16}4x/8x,,7,5,,2,4,,1/2,,4/5-1[8:1],,7/8,,4/5,,
{16}3,,2pp6[16:5],1,,1,2,,7,7,,8,8<5[8:1]*>3[8:1],,1/7,,
{8}8x-3[8:1]V17[8:1]-5[8:1],,8/4x-8[8:1],5,4,,2-8b[8:1]/6-4b[8:1],3/7,
{32}2v5[8:1]/6-1[8:1],,,,,,,,2/6,,,,,,,,2,3,4,5,6,7,8,1,2b/6b,,,,,,,,
{16}4/8,,3/7,3/7,,2/6,2/6,,1,7,3,5,2,8,4,6,
{8}3/7v4[8:1],4/8,7/3>8[8:1],2,3/6-2b[8:1]-7[8:1]-4[8:1],7,6/1-5[8:1],,
{16}1bx,C1f,,,,,,,,,,,,,,,
{1},
{1},
{1},
E
Re:MASTER
最終更新:2026年04月08日 22:49