アットウィキロゴ

GO BACK 2 YOUR RAVE

アーティスト nora2r

BPM EASY BASIC ADVANCED EXPERT MASTER Re:MASTER
170 3 5 9 12 13+ -

EXPERT MASTER Re:MASTER
譜面制作者 Techno Kitchen ぴちネコ -

EASY


BASIC


ADVANCED


EXPERT


MASTER

(170)
{1},
{16}4,,,,1/6,,,7,8,,1v2[8:1]/8,,1/8,,,,
{16}5,,,,3/8,,,1,8z4[16:3],,1/8,,,,,,
{16}3,,,,1/6,,,7,8,,1v2[8:1]/8,,1/8,,8v7[8:1],,
{8},4v3[8:1],,5v6[8:1],,1,1,,
{4}3-7[8:1]/5,3/8-4[8:1],2-6[8:1]/8,2/5-1[8:1],
{4}4-8[8:1]/5,4/7-3[8:1],1-5[8:1]/7,1/6-2[8:1],
{4}4bq5[8:3]/6,,,1-5[8:1],
{4}1-3[8:1]*-7[8:1],1w5[8:1],1b,,
{8}3/8,1,3/8,7h[8:3],3,,3,2,
{8}1/6,8,1/6,2h[8:3],6,,1h[4:1],,
{8}8h[4:1],,6<3[4:1],5h[8:3],,,,,
{8}1h[4:1],,3>6[4:1],4h[8:3],,,,,
{8}1/6,8,1/6,2h[8:3],6,,6,7,
{8}3/8,1,3/8,7h[8:3],3,,8h[4:1],,
{8}1h[4:1],,3>6[4:1],4h[8:3],,,,,
{8}8h[4:1],,6<3[4:1],5h[8:3],,,,,
{8}1-6[32:3],8,1,8,6-2[32:3],,6/7,,
{8}2-5[32:3],1,2,1,5-2[32:3]*-8[32:3],,5,,
{8}8-3[32:3],1,8,1,3-7[32:3],,2/3,,
{8}7-4[32:3],8,7,8,4-1[32:3]*-7[32:3],,4,,
{8}2/8,1,2/8,1,4/6,1,4/6,1,
{8}1/7,8,1/7,8,3/5,8,3/5,8,
{8}1h[8:1],2h[8:1],3h[8:1],4h[8:1],5h[8:1],6h[8:1],7h[8:1],8h[8:1],
{16}1,6,3,8,2,5,4,7,1,,,,1/5,2/6,3/7,4/8,
{16}1-5[16:1]/5,,,,1b,,4,3,2,1,7/8,,5/6,,3/4,,
{16}2,1,3,8,4,,2h[8:1]/6h[8:1],,,,7,8,6,1,5,2,
{16}4,5,6,7,8,1,2,3,4/5,,7,8,,2,1,,
{48}7,,6,,5,,2,,3,,4,,8,,,,,,1-5[8:1]/4-8[8:1],,,,,,,,,,,,1/4,,,,,,,,,,,,6,,,5,,,
{16}4/7-3[16:1],,,,7b,,2,1,8,7,5/6,,3/4,,1/2,,
{16}7,8,6,1,5,,3h[8:1]/7h[8:1],,,,2,1,3,8,4,7,
{16}5,6,3,8,1,1,1,,5,3,6,1,8,8,8<5[8:1]*>3[8:1],,
{8},8bw4[8:1],,8b,,2/6,4/8,2/7,
{16}4b/5b,,3,4,,6,5,,1,,1,,2,,3,,
{16}4/5,,6,5,,3,4,,8,,8,,7,,6,,
{16}4/5,,2,4,,7,5,,1,,1,,2,,3,,
{16}4/5,,7,5,,2,4,,8,,8,,7,,6,,
{8}1>4[8:1]/5,7,1,,1/5<8[8:1],3,5,,
{16}2h[8:1],,1h[8:1],,8h[8:1],,7h[8:1],,2,6,3,5,4,,,,
{16}1,1,1,1,2,8,1,7,8,8,8,8,1,7,2,8,
{4}1b-5[8:1],1b<2[8:3],1h[8:3],,
{8}5/6,3,5/6,8,5/6,2,5/6,1,
{8}5/6,2,4/6,8,4/5,1,3/5,7,
{8}3/4,6,3/4,1,3/4,7,3/4,8,
{8}3/4,7,3/5,1,4/5,8,4/6,2,
{8}5/6,4/7,3/8,1/5,3/4,2/5,1/6,4/8,
{8}5/6,3/7,2/8,1/6,3/4,2/6,1/7,3/8,
{16}8,1,7,2,6,3,5,4,5,4,6,3,7,2,8z4[16:3],1,
{8}8,,,1s5[16:3],1,,,8,
{4}8h[1:1],2q5[16:5],,,
{4}5h[1:1],7p4[16:5],,,
{4}4h[1:1],6q1[16:5],,,
{4}1h[1:1],3p8[16:5],,,
{4}8h[1:1],3q5[16:5],,,
{4}5h[1:1],6p4[16:5],,,
{4}4h[1:1],3p1[16:5],,,
{4}1h[1:1],6q8[16:5],,,
{16}8,,,,4/7,,6,5,6<1[8:1],5,6,,4,,,,
{16}3,,,,2/5,,3,4,3>8[8:1],4,3,,5,,,,
{16}6,,,,3/8,,2,1,2>5[8:1],1,2,,8,,,,
{16}7,,7/8,,1/6,,2/5,,3/4,,3,4,3,,6,5,
{16}6b-4[16:1],,,,3/6,,,,2,4,3,,7,5,6,,
{16}2b-5[16:1],,,,2/7,,,,8,4,7,,1,5,2,,
{16}8b-4[16:1],,,,1/8,,,,2,1,2,,7,8,7,,
{1}1pp4[2:1]/8qq5[2:1],
{16}1/8,,1,8,1,,1/3,,1/4,,1/5,,1/6,,1/7,,
{16}1/8,,8,1,8,,6/8,,5/8,,4/8,,3/8,,2/8,,
{16}1/2,,2,1,2,,2/3,,2/4,,2/5,,2/6,,2/7,,
{16}7/8,,7,8,7,,6/7,,5/7,,4/7,,3/7,,2/7,,
{16}1,1,8,2,7,3,6,4,5,5,4,6,3,7,2,8,
{16}1,1,8,2,7,3,6,4,5,5,4,6,3,7,2,8,
{32}1b,2,3,4,5,6,7,8,1qq4[2:1],2,3,4,5,6,7,8,1,,,,,,,,,,,,,,,,
{4},,,4b,
{8}1/6,8,1/6,2>5[8:1],6,,6,7,
{8}3/8,1,3/8,7<4[8:1],3,,3,,
{8}1>4[4:1]/6,,4q6[32:11],4,,8,8,,
{8}3/8<5[4:1],,5p3[32:11],5,,1,1,,
{8}3/8,1,3/8,7<4[8:1],3,,3,2,
{8}1/6,8,1/6,2>5[8:1],6,,6,,
{8}3/8<5[4:1],,5p3[32:11],5,,1,1,,
{8}1>4[4:1]/6,,4q6[32:11],4,,8,8,,
{8}1-5[32:3],7,1,7,5-2[32:3]/6-1[32:3],,5/6,,
{8}1-5[32:3],3,1,3,4-1[32:3]/5-8[32:3],,4/5,,
{8}8-4[32:3],2,8,2,3-8[32:3]/4-7[32:3],,3/4,,
{8}8-4[32:3],6,8,6,4-1[32:3]/5-8[32:3],,4/5,,
{8}8-6[32:3],1-5[32:3],8,1,6-1[32:3],5-2[32:3],6,5,
{8}1-5[32:3],2-4[32:3],1,2,5-8[32:3],4-1[32:3],5,4,
{8}8h[8:1],7h[8:1],6h[8:1],5h[8:1],4h[8:1],3h[8:1],2h[8:1],1h[8:1],
{16}8,3,6,1,7,4,5,2,8,,,,4/8,3/7,2/6,1/5,
{48}4b/8b,,,,,,,,,,,,2,,3,,4,,7,,6,,5,,1,,,,,,7,,,8,,,,,,2,,,1,,,,,,
{16}7,8,6,1,5,,3h[8:1]/7h[8:1],,,,2,1,3,8,4,7,
{16}5,4,3,2,1,8,7,6,4/5,,2,1,,7,8,,
{16}1b/3b,1/3,,6b/8b,6/8,,3b/4b,3/4,,5b/6b,5/6,,3/6,,2/7,,
{48}1b/8b,,,,,,,,,,,,2,,3,,4,,7,,6,,5,,1,,2,,3,,8,,7,,6,,1,,,1,,,2/8,,,,,,
{16}6,5,7,4,8,,2h[8:1]/6h[8:1],,,,3,4,2,5,1,6,
{16}8,7,6,5,4,3,2,1,8,7,6,5,4,3,2-5[8:1]/6-1[8:1],,
{8},2b-7[8:1]/6b-3[8:1],,2b/6b,,4/8,3/7,2/6,
{4}1-4[8:1]/5-8[8:1],1b/5b,,,
{1},
{1},
{1},
E

Re:MASTER


名前:
コメント:

タグ:

+ タグ編集
  • タグ:
最終更新:2026年10月04日 09:35