BASIC
ADVANCED
EXPERT
MASTER
(172)
{1},
{1}C1f/1xh[8:15],
{1},
{1}1h[8:7]/7h[8:7],
{1}C1xh[2:1]/6h[8:7],
{8}2h[4:3]/5h[4:3],,,,,,,3/4,
{8}4h[4:3]/5h[4:3],,,,,,,4/5,
{8}5h[4:3]/6h[4:3],,,,,,,5/6,
{2}4/7h[2:1],C1hf[2:1],
{4}8,8,8,8,
{4}B1/B2/7,7,7,7,
{4}B3/B4/6,6,6,6,
{4}C1xh[2:1]/B2/B3/5,5,5,5,
{4}4h[8:1]/6<1[4:1],4h[8:1],4h[8:1],4h[8:1],
{4}1-4[4:1]/3h[8:1],3h[8:1],3h[8:1],3h[8:1],
{8}2h[16:1]/4-8[4:1],2h[16:1],2h[16:1],2h[16:1],2h[16:1],2h[16:1],2h[16:1],2h[16:1],
{8}1h[16:1]/8h[32:1],1h[16:1]/8h[32:1],1h[16:1]/8h[32:1],1h[16:1]/8h[32:1],1h[16:1]/8h[32:1],1h[16:1]/8h[32:1],1-5[8:1]/8h[32:1],1h[16:1]/8h[32:1],
{8}1b/8,,6,6,5,4,3,3,
{8}B3/6,6,5,4,3,3,4,5,
{8}B4/6,6,5,4,3,2,4,5,
{8}B5/6,7,4,3,2,1,8,7,
{8}B3/6,5,4,3,2/7,6,4,3,
{8}B1/8,7,5,4,3/6,2,1,8,
{8}B7/1,2,3,4,2/5,6,7,8,
{8}B5/1,2,3,4,C1xh[4:1]/5,6,7b-3[8:1],,
{16}1h[2:1],,,,,,,,E5,B5,B6,E7,E3,B3,B4,E5,
{8}7h[8:7],,,,1,1,1,1,
{8}2b,3,4/6h[8:1],5,4h[8:1]/6,5,2h[8:1]/4,3,
{8}2/4h[8:1],3,4/6h[8:1],5,2h[8:1]/4,3,1-5[8:1]/8,7,
{16}6>4[8:1],,,,3h[4:1],,,,E5,E6,E7,E8,E2,E3,E4,E5,
{8}8,,5-1[8:1]/8,,8,,2/7,6,
{4}3/5-7[8:1],3,1/8-4[8:1],2,
{4}3-1[8:1]/5,5,6/8-4[8:1],6,
{4}4xh[2:5]/7x,7,1,2,
{8}7,,7,,2,,3,3,
{8}3,,5,,6,,4,4,
{8}5,5,4,4,5,4,3>7[4:1]/6,,
{4}7b>3[4:1],5,7<3[4:1],3,
{8}1,1,2/4,3,8,8,1/7,,
{16}4,6,4,6,2,6,3,6,4,6,5,6,5,6,3,6,
{16}4,6,5,6,5,6,4,6,3,6,2,6,1,6,2,6,
{4}3b<7[4:1],7<3[4:1],1,8,
{8}5,5,1/6,7,8,1,2/8,,
{16}5,3,5,3,4,3,5,3,6,3,7,3,8,3,7,3,
{16}2/5,,7,8,7,,1/6,,3,4,3,,4-1[8:1]/5-8[8:1],,3/6,,
{64},,B2/E2/B3/E4/B6/E6/B7/E8,C1f,,,,,,,,,,,,,,,,,,,,,,,,,,,,,,,,,,,,,,,,,,,,,,,,,,,,,,,,,,,,,
{1},
{1},
{2}C1xh[2:1]/B6/B7,8h[1:1],
{1}6h[2:3],
{1}4h[2:3],
{1}2h[2:3],
{1}C1hf[1:1],
{8}1,1,1,1,1,1,1,1,
{8}B3/2,2,2,2,2,2,2,2,
{8}B5/3,3,3,3,3,3,3,3,
{8}B7/4,4,4,4,4,4,4,4,
{8}B8/5,5,5,5,B1/5,5,5,5,
{8}B2/6,6,6,6,B3/6,6,6,6,
{8}E5/7,7,7,7,E1/7,7,7,7,
{8}C1xh[4:3]/8,8,8,8,8,8,8bw4[4:1],,
{16},,,,,,,,3x/5xh[4:1],,,,1,2,5,6,
{16}2,3,5,6,3,4,6,7,4,5,7,8,6b,,,,
{16}E8,B7,B5,E5,E7,B6,B4,E4,E6,B5,B3,E3,8,7,1,2,
{16}7,6,2,3,C1xh[4:1],,,,8>3[8:1],,,,6pp6[2:1],,,,
{16}C1f,,,,,,,,4h[4:1],,,,5,6,2,3,
{16}6,7,2,3,7,8,3,4,6,7,2,3,5,6,1,2,
{16}B6,E7,E3,B3,E8,B7,E2,B2,B5,E6,E4,B4,8,7,1,2,
{16}7,6,2,3,4/5pp5[2:1],,,,C1f,,,,,,,,
{16}4h[2:1],,,,,,,,8b,,,,7,4,7,5,
{16}7,3,7,5,7,1,7,5,7,3,7,5,7,,4/6,,
{16}3,5,3,4,3,6,3,4,3,8,3,4,2,6,2,4,
{16}2,5,2,4,C1xh[4:1],,,,1<6[8:1],,,,2pp2[2:1],,,,
{4}C1f,,8b-5[8:1],4-8[8:1]/8,
{4}4/7-4[8:1],3-7[8:1]/7,3/6-3[8:1],2h[4:1]/6,
{8}E2,E3,E4,E5,E6/1,E7,2,2,
{8}E2/8,E3/8,E4/7,E5/7,E6/7,,4>2[8:1]/8<6[8:1],4/8,
{4}4/8-4[8:1],,2-5[8:1],2b/8-3[8:1],
{4}6-1[8:1]/8b,4-7[8:1]/6b,2-5[8:1]/4b-1[8:1],2-7[8:1],
{4}2b/8-5[8:1],6-3[8:1]/8b,4-1[8:1]/6b,2-7[8:1]/4b,
{4}2bV83[8:3]/8z4[8:3],,,3x/4x,
{16}1,2,6,7,3-8[8:1],4,7,8,1-6[8:1]/3b,,,,1b/7-4[8:1],,,,
{4}5-2[8:1]/7b,3-8[8:1]/5b,3b-6[8:1]/7-2[8:1],3b/7b,
{8}4b/8,3/7b,2b/6,1/5b,E5/8b,E4/7b,E3/6b,E2/5b,
{16}3b,7,4b,6,2b,5,3b,4,2b,7,4b,5,1b-5[16:1],6,3b,8,
{48}1b,B1,C1f,B5,,,,,,,,,,,,,,,,,,,,,,,,,,,,,,,,,,,,,,,,,,,,,
{1},
{1},
{2}C1xh[2:1]/B2/B3,1h[2:1],
{1}2z6[4:3],
{1}4z8[4:3],
{1}6z2[4:3],
{1}8<8[4:3]*>8[4:3],
{1},
{1},
{1},
E
Re:MASTER
最終更新:2026年04月07日 21:34