BASIC
ADVANCED
EXPERT
MASTER
(135)
{2}3h[16:5]/6h[16:5],{4},{8},{16}7,7,
{8}5,4,35,{16}2,2,{8}4,5,46,{16}3,3,
{8}5,{16}6,6,{8}4,3,5,6,46,{16}2,2,
{8}4,5,46,{16}7,7,{8}5,4,35,{16}2,2,
{8}8,{16}7,7,{8}1,{16}3,3,{8}5,{16}6,6,{8}4,{16}2,2,
{8}4,5,46,{16}7,7,{8}5,4,35,{16}6,6,
{8}4,{16}3,3,{8}5,6,4,3,35,{16}7,7,
{8}5,4,35,{16}2,2,{8}4,5,46,{16}7,7,
{4}1>8[8:3],Cf,{2},
{4}8x-4[8:1]/7x-3[8:1],7b/8b,25,{8}47,{16}8,8,
{8}8h[8:3],{16}5,5,{4}5h[4:1],{8}6,4,3,{16}2,2,
{8}4,5,46,{16}7,7,{8}5,46,35,{16}1,1,
{8}1h[8:3],{16}4,4,{4}4h[4:1],{8}3,5,6,{16}7,7,
{8}5-1[8:1],4,3/5b,{16}2,2,{8}8,46,37,{16}8,8,
{8}8h[8:3],{16}5,5,{4}5h[4:1],{8}6,4,3,{16}2,2,
{8}4,5,46,{16}7,7,{8}5,4/6,3<6p2[8:3]/5,2,
{2}1h[4:1],{8}14,36,{4}5b/8b<3<8[2:3],
{2}3h[2:1],{4},2,
{2}2h[2:1],{4},1-5-2-6-4-1[2:3],
{2}6h[2:1],{4},7,
{2}7h[2:1],{4},7/8-3-5-8-5-3-8[2:3],
{2}6h[2:1],{4},7,
{2}7h[2:1],{4},1/5-7[8:1],
{8}4-2[8:1],3,5<8[8:1],6,4>1[8:1],3,5,6,
{8}3,3,1v6[8:1]/2>5[8:1],8,{4}A1/A2/D2f,{8}6-3[8:1]/7-2[8:1],8,
{4}6x/7x,{8}1h[16:3],{16},3,{8}3,24,4>1[8:1]/5,57,
{8}4pp2[4:1]*pp1[4:1],5,{4},,{8}2-7[8:1]/3-6[8:1],1,
{4}2x/3x,{8}8h[16:3],{16},6,{8}6,57,24,35,
{16}2,4,3,7,5,6,1,8,{8}2,46,6-3[8:1]/7-2[8:1],8,
{4}6x/7x,{8}1h[16:3],{16},4,{8}4,23,14,58,
{4}6h[8:1]/7h[8:1],2h[8:1]/3h[8:1],{8}14,14,2-7[8:1]/3-6[8:1],1,
{4}2x/3x,{8}8<5[8:1],{16},4,{8}4,3,2/4h[8:7],3,
{8}2b,1b,8b,7b,6b,8x,{4}8x,
{8}7,7h[4:1],5,5h[4:1],4,4h[4:1],2,2h[4:1],
{8}1,1,18,78,{16}6,5,,5,{8}4,34,
{8}2,2h[4:1],4,4h[4:1],5,5h[4:1],7,7h[4:1],
{8}8,8,18,12,{16}3,4,,4,{8}5,56,
{8}7,7h[4:1],5,5h[4:1],4,4h[4:1],2,2h[4:1],
{8}1,1,18,78,{16}6,5,,5,{8}6-2[8:1],4,
{4}36,{8}4-1[8:1],7,{4}48,{8}7-3[8:1],2,
{2}1w5[8:1]/7,{16}6,4,7,5,{4}8b-5v4>2[8:3],
{4}3b,{8}2,1,1,57,18,24,
{24}6,,6x,8,,8x,1,,1x,3,,3x,{8}5-8-4[4:1],46,3,2h[4:1],
{8},{24}3,2,3,{8}2,{24}7,6,7,{8}6,{24}3,5,1,{4}7b>2[8:1],
{8}4,5,7,48,{32}1-5[8:1],2,3,4,5,6,7,8,{4},
{16}4x/7x,4x/7x,4x/7x,4x/7x,{4}4hx[4:1]/7hx[4:1],{8},A5/A6/D6f/D7,,A3/A4/D3/D4f,
{8}2bx-6[8:1]/1bx-5[8:1],3bx/8bx,{4}A1/A2/D2f,{8},{16},8bx-4[8:1]/7bx-3[8:1],,5bx/6bx,,A7/A8/D8f,
{8},{16},2bx-6[8:1]/1bx-5[8:1],,3bx/4bx,,A1/A2/D2f,{4},{8}8-4[8:1]/1-5[8:1],36,
{4}8-3[8:1]/1-6[8:1],8-4[8:1]/1-5[8:1],18,{24}6x,5x,4x,{8}3x,
{16}1bx/4bx,1x/4x,1x/4x,1x/4x,{8}1x/4x,{16},2hx[16:3]/3hx[16:3],{4},{8}6bx/8bx,6bx/8bx,
{8}6bx/8bx,{12}5x/6x,5x/6x,5x/6x,{8}5hx[4:1]/6hx[4:1],{4},{16}7b,4,6,3,
{16}5,2,4,1,3,3,{8},{16},2b,5,3,6,4,7,5,
{16}8,6,1,1,{4},{16}2x/8x,2x/8x,,3x/7x,3x/7x,3x/7x,,4x/6x,
{16}4x>1[8:1]/6x<1[8:1],4x/6x,{8},{4},3b/7b,4>1[8:1]/5<8[8:1],
{1}4b/5b,
{2},{4},5,
{2}4h[4:3]/6h[4:3],{4},{8},35,
{1}3h[4:3]/5h[4:3],
{2}2h[4:3]/6h[4:3],{4},{8},37,
{1}3h[4:3]/7h[4:3],
{4}5-7[8:1],5-3[8:1],5-8[8:1],5>3-1-7-4-2-8<6[4:3],
{1},
{16}2x/7x,2x/7x,{8}2x/7x,{16}1bx>4[8:1]/8bx<5[8:1],1bx/8bx,{8}1bx/8bx,{4}8bx-4[8:1]/1bx-5[8:1],1b/8b,
{4}2b/7b,{8}12,57,78,34,13,56,
{8}1b/8b,{16}7b,3b,5bw1b[8:1],2b,{8}4b,{4},{8}2x/8x,46,
{4}3<6[8:1]/7,{8}7p3[8:1],8,1p5[8:1],8,6-8-5-1-4[2:1],7,
{8}4,3,2,3,{4}3,{8}5-2[8:1]/6-1[8:1],47,
{4}5b/6b,{8}24,{16}6,6,{8}57,{16}2,2,{8}13,35,
{8}46,{16}7,7,{8}5>2[8:1]/6v1[8:1],47,{4},{8}7bx/8bx,3bx/4bx,
{4}2bxqq5[8:3]/5bx,8h[4:1],,{8}6-8[8:1],5-3[8:1],
{8}6-1[8:1],5-2[8:1],6,5,6-8b[8:1],4,{4}6pp1[4:5]/E5f,
{8}4,4,5,5,4,4,3,3,
{8}4,5,{4}6x,{16}5,5,,3,{8}3qq8[4:5],4,
{8}5,5,4,4,5,5,6,6,
{8}5,4,{4}3x,{16}4,4,,6,{8}6pp1[4:5],5,
{8}4,4,5,5,4,4,3,3,
{8}4,5,6x,6x,{4}5,1x/8x,
{4}B3/B6/E3/E7,18,B4/B5/E5,18,
{4}2>5[8:1]/6<1[8:1],2b/6b,48,6x<4[8:1]/5xq4[8:1],
{4}A5/A6/D6f,6x<4[8:1]/5xq4[8:1],A5/A6/D6f,6x<4[8:1]/5xq4[8:1],
{4}A5/A6/D6f,6x-1[8:1]/5x-1[8:1],A5/A6/D6f,1>3[8:1]/8q4[8:1],
{4}1bxp5[8:1]/8bx<6[8:1],1>3[8:1]/8q4[8:1],1bxp5[8:1]/8bx<6[8:1],1>3[8:1]/8q4[8:1],
{4}1bx/8bx,3x/5x,2b/6b,4xp5[8:1]/3x>5[8:1],
{4}A3/A4/D4f,4xp5[8:1]/3x>5[8:1],A3/A4/D4f,4xp5[8:1]/3x>5[8:1],
{4}A3/A4/D4f,4x-8[8:1]/3x-8[8:1],A3/A4/D4f,4q8[8:1]/5<7[8:1],
{4}4bx>2[8:1]/5bxp1[8:1],4q8[8:1]/5<7[8:1],4bx>2[8:1]/5bxp1[8:1],4q8[8:1]/5<7[8:1],
{4}4bx/5bx,45,2b/7b,6h[4:1],
{8}5,4,3-6-8[4:1],3h[8:3],{4},{8},{16}2,2,
{8}8,3,46,{16}7,7,{8}5,4,35,{16}6,6,
{8}4,{16}3,3,{8}5,{16}6,6,4,5,{8}3h[8:1],5,{16}7,7,
{8}5,4,35,{16}2,2,{8}4,5,46,{16}7,7,{8}1,
{16}2,2,{8}8,{16}6,6,4,5,3,3,{8}5,{16}7,7,
{8}5,4,35,{16}2,2,{8}4,5,46,{16}3,3,
{8}5,{16}6,6,{8}4,{16}3,3,5,4,{8}6h[8:1],4,{16}2,2h[16:5],
{4}4h[4:1],{8},{16}7,7h[16:5],{4}5h[4:1],{8},{16}E6,E5,
{1}E4,
E
Re:MASTER
最終更新:2026年01月14日 22:58