アットウィキロゴ

INTJINTPENTJENTPINFJENFJINFPENFPISTJISFJESTJESFJESTPISTPISFPESFP

アーティスト 3markets[ ]

BPM BASIC ADVANCED EXPERT MASTER Re:MASTER
150 3 6 9+ 13 -

EXPERT MASTER Re:MASTER
譜面制作者 はっぴー はっぴー(INFP) -

BASIC


ADVANCED


EXPERT

(150)
{2}4x/6x,35,
{2}5x/6x,34,
{2}4x/7x,25,
{2}5x/7x,{8}8x,8x,1x,1x,
{2}7x,35,
{2}5x/7x,24,
{2}5x/6x,34,
{2}5hx[2:1],{4}4,4,

{4}57,57,24,24,
{4}56,56,34,34,
{2}5h[4:1]/7h[4:1],{4}24,1h[1:1],
{4}4bx,4bx,4bx,4bx,

{4}7h[4:1],5,{8}2,2,{4}4,
{4}7h[4:1],5,{8}2,2,4,3,
{4}7h[4:1],5,2h[4:1],4,
{4}7h[4:1],5,5,46,
{2}5h[4:1]/7h[4:1],6h[4:1]/8h[4:1],
{2}1h[4:1]/3h[4:1],2h[4:1]/4h[4:1],
{8}6,6,5,5,{2}7-4[4:1],
{8}2,2,4,4,{2}3-8[4:1],

{8}6,6,,78,,12,,34,
{8},56,,7,{4}7h[4:1],5,
{8}3,3,4,4,{2}2-6[4:1],
{2}8-4[4:1],{4}2,B3/B4/E4f,
{2}5h[4:1]/7h[4:1],2h[4:1]/4h[4:1],
{4}3b/4b,E4,E5,E6,
{2}6h[4:1]/8h[4:1],1h[4:1]/3h[4:1],
{4}24,57,2h[1:2],8-3[4:1],

{1},
{2},{8}4,4,{4}3>8[4:1],
{2},{4},2h[1:1],
{4}4bx,4bx,4bx,4bx,

{4}6h[4:1],8h[4:1],1h[4:1],3,
{2}1h[4:1]/2h[4:1],{4}78,18,
{4}7h[4:1],5h[4:1],4h[4:1],2,
{2}1h[4:1]/2h[4:1],{4}78,18,
{2}2>5[4:1],8<5[4:1],
{4}2,34,7,56,
{2}4>1[4:1],5<8[4:1],
{4}2,28,17,17,

{4}3h[4:1],1h[4:1],8h[4:1],6,
{2}7h[4:1]/8h[4:1],{4}12,18,
{4}2h[4:1],4h[4:1],5h[4:1],7,
{2}7h[4:1]/8h[4:1],{4}12,18,
{2}8<5[4:1],1>4[4:1],
{4}7,56,2,34,
{2}5<8[4:1],4>1[4:1],
{4}8,8V64[8:3],{2},

{4}13,13,24,24,
{4}13,13,24,24,
{4}13,13,24,24,
{2}1h[4:1]/3h[4:1],{4}3x/5x,4x/6x,
{16}7h[16:3],,,5h[16:3],,,{8}6,{16}2h[16:3],,,4h[16:3],,,{8}3,
{16}7h[16:3],,,5h[16:3],,,{8}6,{16}2h[16:3],,,4h[16:3],,,{8}3,
{16}2h[16:3],,,3h[16:3],,,{8}4,{16}7h[16:3],,,6h[16:3],,,{8}5,
{4}5bx,7bx/8bx,1bx/2bx,3bx>5[1:1]/4bx,

{1},
{2},{4}5,6>8[1:1],
{1},
{2},{4}4,3<6[4:1],
{2},{4}8,7>2[4:1],
{2},{4}3,2V46[8:3],
{2},{4}7,6V82[8:3],
{2},{4}4,35,

{4}6h[1:1],5,5,5,
{4}3h[1:1],4,4,4,
{4}7h[1:1],5,5,5,
{4}2h[1:1],4,4,4,
{8}7,7,{4}5,{8}2,2,{4}4,
{8}8,8,4,4,6,6,2,2,
{8}4,4,1,1,5,5,3,3,
{8}7,7,{4}1bw5[4:1],{2},

{4}34,12,78,56,
{2}6h[4:1]/8h[4:1],{4}13,18,
{4}56,78,12,3s7[2:1]/4,
{2},{4},8,
{2}5q2[4:1]/6<1[4:1],{4},12,
{2}3>8[4:1]/4p7[4:1],{4},78,
{1}5V31[8:3]*V71[8:3]/6,
{4}2x/8x,2x/8x,46,46,

{4}34,12,78,56,
{4}6h[4:1],8h[4:1],1h[4:1],3,
{4}34,12,78,56,
{4}6h[4:1],8h[4:1],1h[4:1],3,
{2}3q8[4:1]/4<7[4:1],{4},78,
{2}5>2[4:1]/6p1[4:1],{4},12,
{2}4-8[4:1]/3-7[4:1],{4},78,
{2}6-2[4:1]/5-1[4:1],{4},8b,

{4}1hx[4:3],4,4,4,
{4}2h[4:3],3,3,3,
{4}7h[4:3],5,5,5,
{4}2h[2:1],4,4,3>8[4:1]/4h[4:3],
{2},{4}3,1h[4:3]/2>5[4:1],
{2},{4}2,7qq3[8:5],
{1},
{4}34,12,78,5b/6b,

{16}2h[16:3],,,3h[16:3],,,{8}4,{16}7h[16:3],,,6h[16:3],,,{8}5,
{16}2h[16:3],,,3h[16:3],,,{8}4,{16}7h[16:3],,,6h[16:3],,,{8}5,
{16}3h[16:3],,,2h[16:3],,,{8}1,{16}6h[16:3],,,7h[16:3],,,{8}8,
{16}3h[16:3],,,2h[16:3],,,{8}1,{2}1s5[8:3],
E

MASTER

(150)
{8}6-4[8:1],6h[4:1],{4},{8}3<5[8:1],3h[4:1],{4},
{8}6v4[8:1],6h[4:1],{4},{8}3<4-6[8:1],3h[4:1],{4},
{8}7-4[8:1],7h[4:1],{4},{8}2v5[8:1],2h[4:1],{4},
{8}7<4[8:1],7h[4:1],{4},{8}1bx-5[8:1],8bx-4[8:1],1bx,8bx,
{8}6-8[8:1],6h[4:1],{4},{8}3>1[8:1],3h[4:1],{4},
{8}6v8[8:1],6h[4:1],{4},{8}3>2-8[8:1],3h[4:1],{4},
{8}6-1[8:1],6h[4:1],{4},{8}3-7[8:1],3h[4:1],{4},
{8}6<1[8:1],6h[4:1],{4},{8}5,5,{64}6,4,{32},{16},{8},

{16}2h[16:3],,,3h[16:3],,,{8}4,{16}7h[16:3],,,6h[16:3],,,{8}5,
{16}1h[16:3],,,2h[16:3],,,{8}3,{16}8h[16:3],,,7h[16:3],,,{8}6,
{16}4h[16:3],,,3h[16:3],,,{8}2,{16}5h[16:3],,,6h[16:3],,,{8}7,
{4}78,12,{8}4,4,{16}3,5,3,5,

{8}2-6[8:1],8-4[8:1],2,8,,5,{4}4>1[8:1]/6<1[8:1],
{4}46,{8}28,28,E1f,E3f,E5f,E7f,
{8}1x,3x,1x/8x,6x,{4}8h[4:1],{8}6,8,
{8}1,3,4qq4[4:1],6,{2}4-8[8:1]/5-7[8:1],
{8},18,23,45,{4}6h[16:3]/7h[16:3],{8},18,
{8}67,45,{4}2h[16:3]/3h[16:3],{8},18,{4}18,
{16}2,4,3,5,4,6,5,7,7,,,68,,,{8}13,
{16}2,4,3,5,4,6,5,7,7,6,,57,,18,{8}18,

{8}7,56,1,24,6,57,4,12,
{8}5,68,3,24,5,6,1-5qq5[8:3]/7,17,
{2}8-6[8:1],{16}4h[8:1]/7h[8:1],,,2h[8:1]/5h[8:1],,,6,3,
{16}5,2,{8}4,{4}2x-6[8:1]/1x-5[8:1],1bx/2bx,3b/8b,
{8}7-4[8:1],7,4,3,2,1-4[8:1],8-5[8:1],1b,
{8}8b,{16},3,3,4,2,4,{8}2,18,57,45,
{8}3-8[8:1],6-1[8:1],3pp6[8:3],6,{4},{8}7,{16}8,8,
{8}5,{16}2,2,{8}5,34,3-8[8:1]/4-7[8:1],25,{4}3b/4b,

{1}2bhx[4:5]/4h[4:5],
{2},3h[4:1]/4h[4:1],
{4}1bhx[4:3],{8}4,4,4,4,{4}4-8[8:1],
{4}34,1b/7b,{8}8,8,{4}2-7[8:1],

{4}2/6-3[8:1],4>1[8:1]/6,4/5<8[8:1],2-7[8:1]/5,
{4}2/6-3[8:1],4>1[8:1]/6,{8}45,6,{4}7-3[8:1],
{4}4>1[8:1]/7,4/5<8[8:1],2-6[8:1]/5,2/7-3[8:1],
{4}4>1[8:1]/7,4/5<8[8:1],{8}35,2,{4}1-6[8:1]*-4[8:1],
{4}1,8>3[8:1]*<5[8:1],8,1v6[8:1]*v4[8:1],
{4}1,{8}37,8,{4}8h[4:1],{8}6-3[8:1]*-1[8:1],6,
{4},{8}3v8[8:1]*v6[8:1],3,{4},{8}5V71[8:1]*V31[8:1],5,
{4},2x/8x,{8}46,46,{4}1>4[8:1],

{4}1<6[8:1],1/5>2[8:1],5<8[8:1],1-4[8:1]/5,
{4}1-6[8:1],1/5-2[8:1],{8}56,7,{4}8<5[8:1],
{4}8>3[8:1],4<7[8:1]/8,4>1[8:1],4/8-5[8:1],
{4}8-3[8:1],4-7[8:1]/8,{8}34,2,1,1h[4:1],
{8},3,{4}3-6[4:1],6-1[4:1],1-4[4:1],
{4}4,{8}5,5,{4}46,{8}5,4,
{4}3h[4:1],{8}1,8,{4}8qq7[4:1]*pp1[4:1],8,
{4},{8}35,6,{4}7<4[8:1],4,

{16}2h[16:3],,,3h[16:3],,,4,4,5h[16:3],,,6h[16:3],,,7,7,
{16}7h[16:3],,,6h[16:3],,,5,5,4h[16:3],,,3h[16:3],,,2,2,
{16}2h[16:3],,,3h[16:3],,,4,4,5h[16:3],,,6h[16:3],,,7,7,
{4}7-4[8:1],2-6[8:1],5-8[8:1],3,
{16}4x,4,6,2x,2,4x,3,5,4x,4,7,1x,1,4x,3,5,
{16}4x,4,6,2x,2,4x,3,5,4x,4,7,1x,1,4x,3,5,
{16}4x,4,6,2x,2,4x,3,5,4x,4,7,1x,1-5[8:1],4x,{8}3,
{4}1-7[8:1]*-3[8:1],1v6[8:1]*v4[8:1],1,2b/7bV16-3V58V24[4:5],

{1}5h[4:5],
{2},{4}4,3V52-7V14V68[4:5],
{1}1h[4:5],
{2},{4}8,7<5p8p4[2:1],
{2}5h[2:1],{4},2>4q1q5[8:5],
{2}4h[2:1],{4},6<8q5q1[8:5],
{2}8h[2:1],{4},3>1p4p8[8:5],
{2}1h[2:1],{4},1>7[4:3],

{4}8,8,8,8V64-2[4:3],
{4}1,1,1,1>3-5<7[4:3],
{4}8,8,8,8-6>4-2[4:3],
{4}1,1,1,1,
{8}4,4,4,4,35,35,35,35,
{8}6,6,6,6,47,47,47,47,
{16}3,6,3,6,3,6,3,6,2,5,2,5,2,5,2,5,
{16}1,4,1,4,1,4,1,4,{4}8b,1-4[8:1]/2,

{4}1/8-5[8:1],7V53[8:1]/8,47,1-4[8:1]/2,
{4}1/8-5[8:1],7-4[8:1]/8,{8}17,2,{4}3>8[8:1],
{4}3/6<1[8:1],4v7[8:1]/6,4/5v2[8:1],3>8[8:1]/5,
{4}3/6<1[8:1],4v7[8:1]/6,45,1-4[8:1]/5-8[8:1],
{4}15,4>1[8:1]/8<5[8:1],48,1-4[8:1]/5v8[8:1],
{4}15,4q1[8:1]/8<5[8:1],48,1>4[8:1]/5<8[8:1],
{2}1/5p4[4:1],{8}7x,7x,{4}4>1[8:1]/8<5[8:1],
{2}4/8q1[4:1],{4}4x,7-5[8:1]/8-4[8:1],

{4}7-3[8:1]/8-2[8:1],8-5[8:1]/7-5[8:1],78,1q5[8:1]/2>4[8:1],
{4}2V86[8:1]/1-6[8:1],2>4[8:1]/1-4[8:1],12,5-1[8:1]/6-8[8:1],
{4}5-3[8:1]/6-2[8:1],5-1[8:1]/6-8[8:1],56,4>8[8:1]/3-8[8:1],
{4}4<6[8:1]/3-6[8:1],4-1[8:1]/3-8[8:1],34,6<1[8:1],
{8}56,4,{4}3>8[8:1],{8}34,5,{4}6<1[8:1],
{8}56,4,{4}3h[4:1],{8}4,5,6<1[4:1],6,
{4}1>4[4:1],4<7[4:1],7>2[4:1],2>6[4:1],
{4}6<2[4:1],2>6[4:1],6,2b,

{16}1,5,1,5,1,5,1,5,1,5,1,5,2,6,2,6,
{16}3,7,3,7,3,7,3,7,3,7,3,7,4,8,4,8,
{16}5,6,5,6,5,6,4,7,4,7,4,7,3,8,3,8,
{16}2,1,2,1,2,1,2,1,3,8,4,7,{4}5b,
{8}3-8[8:1],3,6-1[8:1],6,4-8[8:1],4,5-1[8:1],5,
{8}2-5[8:1],2,6-1[8:1],6,3-8[8:1],3,5<3[4:1],5,
{2}1h[2:1],{8}4,6,57,57,
{16}4bx,4,6,2,4bx,4,3,5,4bx,4,6,2,{4}8b,

{16}7-4[8:1],,,8,{8}7,1,{16}2-5[8:1],,,1,{8}2,8,
{16}7-3[8:1],,,8,{8}7,1,{16}2-6[8:1],,,1,{8}2,8,
{16}7-1[8:1],,,5,{8}7,3,{16}2-8[8:1],,,4,{8}2,6,
{16}7-1[8:1],,,5,{8}7,3,{16}2,2,4,3,7,5,1b,
E

Re:MASTER


名前:
コメント:

タグ:

+ タグ編集
  • タグ:
最終更新:2026年02月14日 18:52