| アーティスト |
owl*tree feat.yu*tree |
BASIC
ADVANCED
EXPERT
MASTER
(98)
{1},
{24},,,,,,,,,,,,,,,,,4,5,,5,4,,,
{8}3qq4[4:1],4,5,,6pp5[4:1],5,4,,
{8}3qq4[4:1],4,5,,6,5,B3/B4/B5/E5/B6,,
{8}7qq8[4:1],8,1,,2pp1[4:1],1,8,,
{24}7,,,8,,,1/6,,,2,,,3/8,,1,8,1,8,2b/7b,,,,,,
{8}4/6h[2:1],E6,E4,C1,2h[2:1],E4,E6,C1,
{24}7h[8:3],,,5,,,4,,,6,,5/7,,,4/5,,,2h[6:1]/4,,,,8,,,
{24}1,8,1,2x/7x,,,E6,,,C1,,,7h[2:1],,,E6,,,E4,,,C1,,,
{24}1h[2:1],,,E4,,,E6,,,C1,,,7,,,8,,,1,8,1,8,,2x/7x,
{8},E1,E6,C1,2h[2:1],E1,E4,C1,
{24}8h[8:3],,,E1,,,E6,,,C1,,,E2,B2,B3,E8,B7,B6,E4,B4,B5,C1,,,
{8}1xh[2:1],E1,E4,C1,8h[2:1],E1,E6,C1,
{24}1h[8:1],,,3h[8:1],,,5h[8:1],,,6,,3b/7b,,,1,8,,,2/7,,,3/6,,,
{8}4/5<8[8:1],,B6/B7,,4>1[8:1],4,B2/B3,,
{8}5<8[8:1],,B6/B7,,4>1[8:1],4,B2/B3,,
{8}8<5[8:1],,B6/B7,,1>4[8:1],1,B2/B3,,
{8}8-4[8:1],8,3-7[8:1],3,5-8[8:1],5,C1/B3,,
{8}1/2,2/3,3/4,4/5,7/8,6/7,5/6,4/5,
{24}3,4,3,6,5,6,3,4,2,6,5,7,3,4,1,6,5,4b/8b,,,1,8,,3<6[12:1],
{24}4,,2,1,,3/7,,,8,1,,6>3[12:1],5,,7,8,,2/6,,,1,8,,8,
{24}6,,6,4,,4<3[24:5],2,,2,,,C1f,,,,,,,,,8,1,,6>3[12:1],
{24}5,,7,8,,2/6,,,1,8,,3<6[12:1],4,,2,1,,3/7,,,8,1,,1,
{24}3,,3,5,,5,7,,4/7,,,2/5,,,3,5,4,7,1b,,5,4,,7>2[12:1],
{24}8,,6,5,,3/7,,,4,5,,2<7[12:1],1,,3,4,,2/6,,,5,4,,4,
{24}2,,2,8,,8>6[24:5],6,,6,,,C1f,,,,,,,,,4,5,,2<7[12:1],
{24}1,,3,4,,2/6,,,5,4,,7>2[12:1],8,,6,5,,3/7,,,4,5,,5,
{24}7,,7,1,,1,2,,2/5,,,4/7,,,6,4,5,2,8b,,2,1,,3-8[12:1],
{24}4,,2,1,,3,,,7,8,,6,5,,3,4,,2/5,2-5[8:1]/5,,,7,,,
{4}2/6-1[8:1],2<7[12:1]/6>3[12:1],2/6,1b/5b,
{24}3/6,,2,4,,3,5,,4,6,,5,7,,,2/8,,,3/5,,6,5,,3,
{24}4,,6,8,,7,1,,8,2,,1,3,,,1/8,,,2/7,,,6,5,6,
{24}5,,4/7,,3/6,,2h[6:1]/5,,,,1,2,8,1,7,8,6,1,7,2,8,3,1,2,
{24}8,,2/8,,,3,4,,4,5,,5,7h[12:1],,5,6,3,4,2/5,,,1/8,,,
{24}3/6,,7,5,,6,4,,5,3,,4,2,,2/8,,,7,5,,1/7,,,2h[8:1]/8,
{24},,1,,1/3,,2/8>6[6:1],,6/8,,1/7,,2b/8b,,,,,,3,1,2,8,1,7,
{24}8h[8:1],,,5,,3/6,,,7,5,6,4,5h[8:1],,,1,,2/7,,,2,8,1,7,
{12}8h[12:1],6h[12:1],4h[12:1],2h[12:1],4h[12:1],6h[12:1],8h[12:1],2h[12:1],8,1/5,3b/7b,,
{8}4>1[8:1]/5,,B2/B3,,5<8[8:1],5,B6/B7,,
{8}4>1[8:1],,B2/B3,,5<8[8:1],5,B6/B7,,
{8}1>4[8:1],,B2/B3,,8<5[8:1],8,B6/B7,,
{8}1-5[8:1],1,6-2[8:1],6,4-1[8:1],4,C1/B6,,
{8}7/8,6/7,5/6,4/5,1/2,2/3,3/4,4/5,
{24}6,5,7,3,4,2,7,8,6,2,1,3,6,5,8,3/7,,1b/5b,,,,,,,
{1}4/6pp5[2:1],
{1}1v8[8:3]/6,
{8}3qq4[2:1]/7,,,,,,,3x/6x,
{24}7,,7,5,,5,4,,2/4,,,5/7,,,6,4,5,2,8b,,4,5,,2>5[12:1],
{24}1,,3,4,,2/6,,,8,1,,6<1[12:1],5,,7,8,,2/6,,,3,1,,1,
{24}7,,7,5,,5<3[24:5],3,,3,,,C1f,,,,,,,,,1,8,,3>8[12:1],
{24}4,,2,1,,3/7,,,5,4,,7<4[12:1],8,,6,5,,3/7,,,2,4,,4,
{24}6,,6,8,,8,2,,2/4,,,5/7,,,3,5,4,7,1b,,7,8,,6-1[12:1],
{24}5,,7,8,,6,,,2,1,,3,4,,6,5,,4/7,4/7v5[8:1],,,2,,,
{4}3v1[8:1]/7,3p6[12:1]/7p2[12:1],3/7,1b/5b,
{24}4qq5[4:1]/5,,,3/6,,,7h[12:5],,,,,,,,,,5,,4/5,,2/4,,1/8,,
{24}2/7,,,3,,3,1,,1,8,,8,6pp4[4:1],,6,,,3x,,,,,,,
{24}2,,,4/5,,,2,,2,4,,4,5pp4[24:5],,5,,,8x,,,,,,,
{24}3/8,,7,5,,6,4,,5,3,,4w8[8:1],2,,1/7,,,,,,,,,,
{24}4/5,,,2,,2/4,,,4-8[12:1]/6,,,2/5,,,4/7,,,2/6,,,1,8,,,
{24}3/7,,,7,,7,8,,8,1,,1,2-6[12:1],,2,4,,,2/5,,,4/8,,,
{24}4/5v2[12:1],,,7,,7,5,,,3/7,,,4v7[12:1]/5,,,2,,2,4,,,2/6,,,
{24}4/5,,,7,,7,1,,1,6v4[8:1],,6,4-8[12:1],,,6w2[12:1],,,2b,,,6b,,,
{1},
{1},
{1},
E
Re:MASTER
最終更新:2026年04月12日 09:16