アットウィキロゴ

Knight Rider

アーティスト USAO

BPM BASIC ADVANCED EXPERT MASTER Re:MASTER
200 5 8 11 13+ -

EXPERT MASTER Re:MASTER
譜面制作者 カマボコ君 ロシェ@ペンギン -

BASIC


ADVANCED


EXPERT


MASTER

(200)
{4}Ch[4:1],,,,,,,B3/B4/E5/B5/B6,

{1}8x-2pp5[4:3],1x-7qq4[4:3],
8x<7-1-6-2[4:3],{4}1x<8-2-5[4:2],,,7,
{2}5-1[8:1]/6,4-8[8:1]/3,7/5-2[8:1],2/4-7[8:1],
{4}8x/6x,1x/3x,{8}3/6,3/6,{16}4,5,4,5,{1}1b,

{8}5x,5,2,2,1,2,3/8h[4:1],,4h[8:1],6,5h[8:1],7,6-3[8:1],,7,,
5,5,2,2,1,2,{4}8/3>7[4:1],7<3[4:1],3,1-5[8:1]*-7[8:1],,
{8}4x,4,7,7,8,7,6/1h[4:1],,5,5,{4}3/4-8[8:1],2-6[8:1],7,
8hx[4:1]/6x-3[8:1],,5hx[4:1]/2x-7[8:1],,{8}6,6,3,3,{16}5,4,5,4,{8}8x,,
3h[4:2],6,5,6,7h[4:2],2,3,2,1h[4:1],8,7,6,2-4[8:1]/5-8[8:1],,,,
1,8,7,6,5/4,3,2,1,{4}8-6[8:1],8/1-5[8:1],1/2-4[8:1],2/4,
{8}1/6,1/6,1/6h[4:1],,2h[4:2],7,6,7,8h[4:1],1,2,3,7-5[8:1]/4-1[8:1],,,,
{16}2,4,2,4,3,5,3,5,4,6,4,6,5,7,5,7,{4}6<3[4:1],,Ch[4:1],,

{2}7xh[4:1]/3xb<5[8:1],8h[4:1]/3v6[8:1],{8}1/3<5[8:1],,8,8,{2}7>1[8:1]/3v6[8:1],
1h[4:1]/3<5[8:1],8h[4:1]/3v6[8:1],3<5[8:1]/7>1[8:1],2-7[8:1]/4-1[8:1],
{4}6>4[8:1]/8,1,{8}6v3[8:1]/2,2,2,,{4}6>4[8:1]/4,3,2<7[8:1]/6v3[8:1],,
{4}6>4[8:1]/8,1,{8}6v3[8:1]/2,2,2,,{4}6>4[8:1]/4,3,1q5[8:1],{8}7,7,
{4}8-4[8:1],8b,{8}3,2,1,8,5/7,6,2/4,3,{2}7h[4:1]/5-1[8:1],
{8}6,5,4,3,2-6[8:1],6-2[8:1],,,7-3[8:1],3-7[8:1],,,4-1[8:1],,E7/B7/B6,,
1x,2,{4}3h[4:2]/8-4[8:1],8-6[8:1],8,{8}4x,5,{4}6h[4:2]/1-5[8:1],1-3[8:1],1,
{16}5,4,5,4,6,3,6,3,7,2,7,2,8,1,8,1,{4}8h[4:3],C,E4,E1,

{8}1x/7xV51[4:1],,8,8,,3,{4}3/1<5[4:1],5>1[4:1],1<5[4:1],5-1[8:1],1,
{8}2,3,4/8,7,6/1,2,{4}3/5h[4:2],E8/B8/B7,B3/B4/E4,{8}5,6,1/7,,
{8}8x/2xV48[4:1],,1,1,,6,{4}6/8>4[4:1],4<8[4:1],8>4[4:1],4-8[8:1],8,
{8}7,6,5/1,2,3/8,7,{4}6/4-1[8:1],8-5[8:1],2-7[8:1],6-3[8:1],{8}8,8,
{4}1-5[8:1],1b,{8}7,8,{4}3/1<5[4:1],5>1[4:1],1<5[4:1],5-1[8:1],1,
{8}2,3,4/8,7,6/1,2,{4}3/5-8[8:1],1-4[8:1],7-2[8:1],3-6[8:1],{8}1,8,
{2}7h[4:1]/4-8[8:1],{8}3-1[8:1]/6,6,8,,{2}7h[4:1]/4-8[8:1],{8}3-1[8:1]/6,6,8,,
{2}2h[4:1]/5-1[8:1],{8}6-8[8:1]/3,3,1,,{16}2,1,2,1,2,1,2,1,{24}2x,3x,4x,5x,6x,7x,8x,1x,2x,3x,4x,5x,

{1}6xq1[4:11]/8b<1[4:11],,
,,
{8}B5,,,B4,,B7/B6,B2/B3,,E7,E3,,B4/B5,,C,{16}E8,B8,B1,E2,
{8}B7/B6,,B2/B3,,E6,E5,E4,,{1}Ch[4:2],
{4}2xh[4:1]/8x,B4,{8},1,1/C,,{4}3xh[4:1]/8x,E5,{8},2,2/C,,
{4}7xh[4:1]/1x,B5,{8},8,8/C,,{4}6xh[4:1]/1x,E5,{8},7,7/C,,
2x,2,2/B6/B5,,1x,1,1/B5/B4,,8x,8,8/B4/B3,,7x,7,7/B3/B2,,
{16}6,5,6,5,7,4,7,4,8,3,8,3,1,2,1,2,{4}Cf,,1-5[8:1],1bx,

{4}1x-3[8:1]/8x-4[8:1],1-5[8:1]/8-6[8:1],1-3[8:1]/8-4[8:1],1-5[8:1]/8-6[8:1],1-3[8:1]/8-4[8:1],1-5[8:1]/8-6[8:1],1x/8x,1bx/8bx,
1bx-3[8:1]/8bx-3[8:1],1-6[8:1]/8-6[8:1],1-3[8:1]/8-3[8:1],1-6[8:1]/8-6[8:1],1-3[8:1]/8-3[8:1],1-6[8:1]/8-6[8:1],1x/8xw4b[8:1],8bx,
{8}1bx/5bx,1bx/5bx,1bx-5-3[4:1]/5bx,,5,6,7,8,{4}1<5[4:1],5>1[4:1],1<5[4:1],5,
{1}8xpp3[4:2]*qq5[4:2],{8}1/6,5,4,3,{4}2/7,1x-5[8:1]/7x-5[8:1],
1-3[8:1]/7-3[8:1],1-5[8:1]/7-5[8:1],1-3[8:1]/7-3[8:1],1-5[8:1]/7-5[8:1],1-3[8:1]/7-3[8:1],1-5[8:1]/7-5[8:1],1x/7x,2bx/8bx,
8bx-4[8:1]/2bx-4[8:1],8-6[8:1]/2-6[8:1],8-4[8:1]/2-4[8:1],8-6[8:1]/2-6[8:1],8-4[8:1]/2-4[8:1],8-6[8:1]/2-6[8:1],2x/8x,{8}1bx/5bx,1bx/5bx,
{4}1bx/5bx,4/5-1[8:1],5/6-8[8:1],6/5>1[4:1],1<5[4:1],5>1[4:1],1,{8}6bx,6bx,
{1}1bx>3-7<5[4:2]/6bxh[4:3],1pp4[4:2]*qq6[4:2],

{8}8-4[8:1],,8b/4,3,2h[4:1],,1,2,8/3-6[8:1],,1,8,7-4[8:1]/5,,7/8,,
1/5,1,2/6,6,3/7,,{4}8x<2[8:3]/1xp1[8:3],,,2x-6[8:1]*-5[8:1],2bx,
{8}4x-8[8:1]/6x,6,8,,3-1[8:1]/6,6,8,,4-8[8:1]/6,6,8,,3-1[8:1]/6,6,8,,
{1}1hx[4:3]/5x<4[4:2],{16}1x,5,2,6,3,7,4,8,{4}5-1[8:1],,
1x-4[8:1]*-6[8:1],1b,{8}3/7,2,1/4,4,{4}5/3-7[8:1],8-4[8:1],{8}2,1,1,,
7h[8:1],5,6h[8:1],4,5h[8:1],3,4h[8:1],2,{4}1-3[8:1]/3,1/8-4[8:1],8/4,B1/B2/E2,
{8}8x,8,5,5,7,7,1,1,{4}4-8[8:1],4/7-5[8:1],{8}7/8,1,2,3,
4/5,4/5,5/6,5/6,{16}7,6,7,6,7,6,7,6,{32}8x,1x,2x,3x,4x,5x,6x,7x,8x,1x,2x,3x,4x,5x,6x,7x,{4}8x-5[8:1]/4x-1[8:1],8x/4x,
Ch[8:1],
E

Re:MASTER


名前:
コメント:

タグ:

+ タグ編集
  • タグ:
最終更新:2026年04月11日 21:28