| アーティスト |
MECHANiCAL PANDA「BORDER BREAK」 |
EASY
BASIC
ADVANCED
EXPERT
MASTER
(132)
{1},
{8}2h[8:7],,,4h[8:7],,,,,
{8}5h[8:7],,,7h[8:7],,,,,
{8}1h[8:7],,,5h[2:1],,,,,
{1}1pp4[4:5]/5pp8[4:5],,
{16}3/4,,4/5,,5/6,,7,8,,8,1,,1/2,,3/8,,
{16}5/6,,4/5,,3/4,,2,1,,1,8,,7/8,,6,5,
{16}4/7,,3/6,,2/5,,1,8,,8,7,,1/6,,3/8,,
{16}2/5,,3/6,,4/7,,8,1,,1,2,,3/8,,3,4,
{16}2/5-1[16:1],,,,5/7,,8,8,,1,1,,3/6,,2,1,
{16}3h[8:1]/8h[8:1],,,1h[8:1]/6h[8:1],,,2b/7b,,,5,4,5,3,6,2,7,
{16}1^4[16:1],1,,1/8,,6,6,5,8^5[16:1],8,,1/8,,,,1/8,
{16},3,4,3,2/5,,6,5,6,4/7,,1/8,,2,1,3^6[16:1],
{16}3h[16:3],,,,,7,8,6^3[16:1],6h[16:3],,,,,,,4/5,
{16}4/5,,3,4,2/5,,6,5,4/7,,1,8,2/7,,4/5,,
{16}1-6[16:1]/8-3[16:1],,3/6,,1/8,,,1/2,3/8,,4,5,3/6,,,7/8,
{16}1/6,,5,4,3/6,,2/7,,1-5[16:1],5,3,7,1,,,,
{16}4/5,,7,7,2-6[16:1],2,,,2/7-3[16:1],,8,,7/2V48[8:1],,1,,
{4}2/7V51[8:1],7/8w4[16:1],8b,,
{16}2/6,,7-1[16:1],1-5[16:1],5-3[16:1],,,,,,2,,1/3,,7,,
{16}6/8,,7v2[16:1],2^7[16:1],7^4[16:1],,,,,,3,,2/4,,6,,
{16}5/7,,8z4[8:1]*-5[8:1],8,8,,,,,,3,,1/5,,6,,
{16}4^1[16:1]/8^5[16:1],,,4/8,,,4/8,,2/6,,
{641}1,,,,,,,,,,2,,,,,,,,,,
{828}3,,,,,,,,,,,,,
{641}4,,,,,,,,,,5,,,,,,,,,,
{828}6,,,,,,,,,,,,,
{641}7,,,,,,,,,,8,,,,,,,,,,
{8}1b,,
{16}3/5-1[16:1],,4/6,,5/7,,8,2,,2,4,,4/6,,2/4,,
{16}6/4-8[16:1],,3/5,,2/4,,1,7,,7,5,,3/5,,5/7,,
{8}4/2-6[16:1],1,2/8-4[16:1],7,8/1-5[16:1],2,1/7-3[16:1],8,
{16}7/1w5[16:1],,2,,1,,7,5,,2-6[16:1],4,,8b,,,,
{16}5/7,,3/5,,5/7,,2,4,,7,5,,1/8,,,7,
{16}8,,4/5,,2,1,,3h[8:1]/7h[8:1],,,3/7,,1^4[16:1],,1^6[16:1],,
{16}1-5[16:1],,,,,,6,8,,3,1,,7,4,5,2,
{16}3h[8:1]/4h[8:1],,,5h[8:1]/6h[8:1],,,1b/8b,,,,4,8,4,7,4,6,
{16}4-8[16:1],,3/5,,2/4,,1,7,,7,5,,3/5,,5/7,,
{16}3/5-1[16:1],,4/6,,5/7,,8,2,,2,4,,2/4,,4/6,,
{8}5/7-3[16:1],8,7/1-5[16:1],2,1/8-4[16:1],7,2/8,3qq5[4:1],
{8},5,6,7,8-4[16:1],5,1b,,
{16}2/4,,4/6,,2/4,,7,5,,2,4,,1/8,,,2,
{16}1,,3/6,,7,8,,2h[8:1]/6h[8:1],,,2/6,,8^3[8:1],,3^6[8:1],,
{16}6^8[16:1],,,,,,3,1,,6,8,,4/5,4/5,4/5,4h[16:11]/5h[16:11],
{4},,,2b/7b,
{16},,,,,,,,,,5/7,,1b,,4qq4[4:1]/8qq8[4:1],4/8,
{8}4/8,,,,1,3,7,5<4[2:1],
{8},1,1h[2:1],,,,5,5V31[4:1],
{8},1V75[4:1],,5>1[4:1],,1<5[4:1],,5s1[8:3],
{8},,,,,4/8,2/6,,
{16}4,5,3,5,4,5,2-6[16:1],2,,8-4[16:1],8,,1,,,,
{16}5,4,6,4,5,4,7-3[16:1],7,,1-5[16:1],1,,8,,,,
{16}2,4,2,4,3,5,3,5,4,6,4,6,5,7,5,7,
{16}6h[8:1]/8h[8:1],,,1h[8:1]/3h[8:1],,,2bV41[16:3]/7bV58[16:3],,,,,,,,,,
{16}6/4-8[16:1],,3/5,,2/4,,1,7,,7,5,,3/5,,5/7,,
{16}3/5-1[16:1],,4/6,,5/7,,8,2,,2,4,,4/6,,2/4,,
{8}5/7-3[16:1],8,7/1-5[16:1],2,1/8-4[16:1],7,8/2-6[16:1],1,
{16}2/8w4[16:1],,7,,8,,2,4,,7-3[16:1],5,,1b,,,,
{16}2/4,,4/6,,2/4,,7,5,,2,4,,1/8,,,2,
{16}1,,4/5,,7,8,,2h[8:1]/6h[8:1],,,2/6,,8^5[16:1],,8^3[16:1],,
{16}8-4[16:1],,,,,,3,1,,6,8,,2,5,4,7,
{16}5h[8:1]/6h[8:1],,,3h[8:1]/4h[8:1],,,1b/8b,,,,5,1,5,2,5,3,
{16}5-1[16:1],,4/6,,5/7,,8,2,,2,4,,4/6,,2/4,,
{16}6/4-8[16:1],,3/5,,2/4,,1,7,,7,5,,5/7,,3/5,,
{8}4/2-6[16:1],1,2/8-4[16:1],7,8/1-5[16:1],2,1/7,6pp4[4:1],
{8},4,3,2,1-5[16:1],4,8b,,
{16}5/7,,3/5,,5/7,,2,4,,7,5,,1/8,,,,
{8}4/5-1[16:1],6,5/4-8[16:1],3,4/5,6,1^6[8:1],6^3[8:1],
{16}3^1[16:1],,,,,,6,8,,3,1,,2,5,4,7,
{16}5h[8:1]/6h[8:1],,,3h[8:1]/4h[8:1],,,2bv4[16:1]/8bv6[16:1],,,,2b/8b,,,,,,
{16}2-5[16:1],,2,2,7-3[16:1],,7,7,1-6[16:1],,1,1,8-4[16:1],,8,8,
{16}3-8[16:1],,3,3,6-2[16:1],,6,6,1w5[16:1],,1,1,,,,,
{16}7-4[16:1],,7,7,2-6[16:1],,2,2,8-3[16:1],,8,8,1-5[16:1],,1,1,
{16}6-1[16:1],,6,6,3-7[16:1],,3,3,8w4[16:1],,8,8,,,,,
{16}3-8[16:1],,3,3,6-2[16:1],,6,6,1w5[16:1],,1,1,,,,,
{16}6-1[16:1],,6,6,3-7[16:1],,3,3,8w4[16:1],,8,8,,,,,
{16}2h[8:1]/4h[8:1],,,4h[8:1]/6h[8:1],,,6h[8:1]/8h[8:1],,,2h[8:1]/8h[8:1],,,1,1,1,1,
{16}5-1[16:1],,3/7,,8,8,8,8b,
E
Re:MASTER
最終更新:2026年10月04日 09:43