BASIC
ADVANCED
EXPERT
MASTER
(150)
{1},
{16},,,,,,,,,,,,4,5,4,5,
{1}3bx/6bx,
{16}2/5,,3,4,,6,5,,4,5,4,,1/8,,,,
{8}3b/6b,,,3/4,2h[4:1]/5h[4:1],,,,
{8}1x/7x,,,5/6,4h[4:1]/7h[4:1],,,,
{8}2x/8x,,,3/4,2xh[8:1]/5xh[8:1],,1xh[8:1]/6xh[8:1],,
{8}7/8,1/8,1/2,,5/6,,3/7,,
{8}4x/5x,,,1/2,3h[4:1]/8h[4:1],,,,
{8}4x/6x,,,7/8,1h[4:1]/6h[4:1],,,,
{8}3x/5x,,,1/2,3xh[8:1]/8xh[8:1],,4xh[8:1]/7xh[8:1],,
{8}5/6,4/5,3/4,,7/8,,4b/6b,,
{4}1b/8<2[4:5],1,1,1,
{4}1,1,1,1/8<2[4:5],
{4}1,1,1,1,
{4}1,1,1,2b/8b,
{16}3h[16:3],,,4,,,2/5,,6h[16:3],,,5,,,4/7,,
{16}2h[16:3],,,1,,,3/8,,7h[16:3],,,8,,,1/6,,
{32}3,,,,3,,,,5,,,,5,,,,1,,7,,1,,7,,1x,2x,3x,4x,8x,7x,6x,5x,
{1}C1f/4x,
{16}3/6,,2,1,,7,8,,1,8,1,,3/6,,,,
{8}5h[8:1],4,5h[8:1],B8,5h[8:1],4,5h[8:1],E7,
{8}5h[8:1],4,5xh[8:1],B5,5xh[8:1],4,5h[8:1],E7,
{8}5h[8:1],4,5h[8:1],B8,5h[8:1],4,5h[8:1],E7,
{16}5h[8:1],,4,,5h[8:1],,6,,5pp7[8:1],,,B1/E2,,E3/D3,,,
{8}4h[8:1],5,4h[8:1],B1,4h[8:1],5,4h[8:1],E3,
{8}4h[8:1],5,4xh[8:1],B4,4h[8:1],5,4h[8:1],E3,
{16}4qq2[8:1],,,B8/E8,,,E7/D7,,4xh[8:1],,6,,4h[8:1],,B1,,
{8}4h[8:1],6,4h[8:1],E3,4,1/8,2b/7b,,
{16}1/7xh[1:0],,,4,7xh[1:0],,4,,7xh[1:0],5,,5,7xh[1:0],,6,6,
{16}7xh[1:0],5,,5,7xh[1:0],,4,,7xh[1:0],5,,5,7xh[1:0],,6x,6,
{16}7xh[1:0],,,3/8x,,,1x/6x,,7xh[1:0],4x,,4,7xh[1:0],,5,,
{16}7xh[1:0],,6,6,7xh[1:0],,5,,4>1[8:1],,,B5,,E7,,,
{16}7/8,,7/8,,1b/6b,,,,2xh[1:0],4,,4,2xh[1:0],,3,3,
{16}2xh[1:0],4,,4,2xh[1:0],,3,3,2xh[1:0],4,,4,2xh[1:0],,1x,,
{16}2xh[1:0],,,1x/6x,,,3/8,,2xh[1:0],5x,,5,2xh[1:0],,1,,
{16}2xh[1:0],,3,3,2xh[1:0],,4,,2/5,2/5,,1/7,,3/5,,2/7,
{1}2bqq5[8:13]/7bpp4[8:13],
{1},
{8},,,C1f/E3/D3/B6/B7/E7,,,,,
{16}1/2,,,,1/7,,1/7,,8h[16:3],,,7h[16:3],,,6,,
{8}5/6,,3/4,3/4,3/4,,2/8,2/8,
{16}7p4[2:1],,,1,,,2,,2h[4:1],,,,,,,,
{16}3V51[2:1],,,8,,,7,,7h[4:1],,,,,,,,
{16}7/8,,,,2/8,,2/8,,1h[16:3],,,2h[16:3],,,3,,
{8}3/4,,5/6,5/6,5/6,,1/7,1/7,
{16}2q5[2:1],,,8,,,7,,7h[4:1],,,,,,,,
{16}6V48[2:1],,,1,,,2,,2h[4:1],,,,,,,,
{16}B6/E6/2,,,,E1/3,,3,,B6/E6/3,,,4,E1,,4,,
{8}B6/E6/4,,E1/3,3,B6/E6/3,,E1/2,2,
{4}B6/E6/3h[8:1],E1/3h[8:1],B6/E6/2h[8:1],E1/2h[8:1],
{4}B6/E6/3h[8:1],E1/3h[8:1],4q1[8:1]/5p8[8:1],,
{16}3h[16:3],,,4,,2x/5x,2/5,,6h[16:3],,,5,,4x/7x,4/7,,
{16}2h[16:3],,,1,,3x/8x,3/8,,7h[16:3],,,8,,1x/6x,1/6,,
{1}C1f,
{16}3/6,,2,4,,7,5,,4,5,4,,1/8x-6[8:1],,,,
{16}1/8-4[8:1],,,,2/8-6[8:1],,2,,2/8-4[8:1],,,3x,8-6[8:1],,3,,
{8}3/8-4[8:1],,5/8-6[8:1],5,5/8-4[8:1],,3/8-6[8:1],3,
{16}3/8-4[8:1],,,1,8-6[8:1],,1,,2/8-4[8:1],,,,3/8,,,,
{16}2b/8b,,,4b/6b,,,6b/8b,,2b/4b,,,,8/1x-3[8:1],,,,
{16}8/1-5[8:1],,,,7/1-3[8:1],,7,,7/1-5[8:1],,,6x,1-3[8:1],,6,,
{8}6/1-5[8:1],,4/1-3[8:1],4,4/1-5[8:1],,1/5,,
{2}2b-5[8:1]*-7[8:1],6b-1[8:1]*-3[8:1],
{16}1bx/7b,,,3b/5b,,,1b/3b,,5b/7b,,,,4/5,,,,
{16}3/6,,,,2/3,,2/3,,1h[16:3],,,3h[16:3],,,5,,
{16}4/6,,,,6/7,,7,7,6,,,8h[16:3],,,3,,
{32}2x/5x,,,,3x,,4,,,,2,,1,,,,4/7,,,,6,,5,,,,7x,,8x,1x,2x,3x,
{16}4b/8b,,,2b/6b,,,1b/5b,,3b/7b,,,,1/8,,,,
{16}2/7,,,,6/7,,6/7,,8h[16:3],,,6h[16:3],,,4,,
{16}3/5,,,,2/3,,2,2,3,,,4h[16:3],,,8,,
{16}1x/6x,,7,8,,6,5,,3/8,,2,1,,3,4,,
{16}1b/5b,,,3b/7b,,,4b/8b,,2b/6b,,,,3/8,,,,
{8}8/2x-4[8:1],,1/2-6[8:1],8,7h[8:3]/2-4[8:1],,2-6[8:1],,
{8}2/8-4[8:1],,1/8-6[8:1],3,5h[8:3]/8-4[8:1],,8-6[8:1],,
{8}8/2x-4[8:1],,1/2-6[8:1],7,2-4[8:1]/5-1[8:1],,2/5,,
{8}3b/8b,2b/5b,4b/7b,,1b-5[8:1]/6b-8[8:1],,C1,,
{8}1x/7-5[8:1],,8/7-3[8:1],1,2h[8:3]/7-5[8:1],,7v4[8:1],,
{8}7/1x>3[8:1],,8/1v6[8:1],6,4h[8:1]/1>3[8:1],,1-5[8:1]/7-3[8:1],,
{16}1/7,,,,1x,,2/8,3/7,4/6,,,3/7,,,2/8,,
{8}1b-5b[8:1],8,1/7-3[8:1],,7/1bw5b[8:1],,,,
{16}2x,2,1,1,2,,,3/7,,6,6,5,6,,3,3,
{16}4,3,,2/6,,7,7,8,7,,,2b/6b,,,4b/8b,,
{16}2/6,,,,1/7,1/7,1/7,,3b/5b,,,2b/6b,,,1b/7b,,
{16}8<5[8:1],,,2,,,3x,,4b>2[8:1],,,7,,,8,,
{16}1x/2x,1/2,1x/2x,1/2,1x/2x,,,3/7,,6,6x,5,6,,3,3x,
{16}4,,,2/6,,7x/8x,7/8,7x/8x,7/8,,,3/4,,2/6,,1x,
{32}8,,8,,2,,2,,4,,4,,6x,,6,,8x,7,6,5,4,3,2,1,8x,7,6,5,4,3,2,1,
{32}8x-4[16:1],,,,,,,,,,,,,,,,1x,2,3,4,5,6,7,8,1x,2,3,4,5,6,7,8,
{1}1bxh[16:31]/5bxh[16:31],
{1},
{8},C1,,,,,,,,
E
Re:MASTER
最終更新:2026年03月29日 21:43