アットウィキロゴ

Life Feels Good

アーティスト Cranky

BPM EASY BASIC ADVANCED EXPERT MASTER Re:MASTER
180 3 5 9 12+ 13+ -

EXPERT MASTER Re:MASTER
譜面制作者 mai-Star 某S氏 -

EASY


BASIC


ADVANCED


EXPERT


MASTER

(180)
{1},2h[1:1]/8-4[2:1],
{4}4-7[2:1],,,1h[4:3],
{4}2^5[2:1],,,1,
{8}2,2^7[4:1],7,7^4[4:1],,,1,,
{8}7,7,8,8,1,1,2,2,
{4}4/3,5/2,6/1,8/7,
{16}2/7,,,1,8h[2:3],,,,2,,,,3,,,,
{4}4,5,6,7,
{16}8,,7,,6,,5,,4,5,6,7,8,1,2,3,
{8}4b/5b,7,8,1-5[8:1],,4,3,2,
{16}1,,6,5,4,,3,4,5,,6,,7,,8,,
{8}1-5[8:1],2,3,4,6-2[8:1],7,8,1,
{16}1h[4:3],,,2q7[8:1],2,,,,,,,,8,,,,
{16}1,,6,,7,,3h[4:1],,,,2,,8,7,6,5,
{16},,2/4,,,,1,,2,,3,4,3,,6,,
{8}5-2[8:1],5,4-7[8:1],4,6-1[8:1],6,3-8[8:1],3,
{16}5-1[8:1],,,8<1[16:9],8,,,,,,,,,,,,
{8},3,5,7h[4:1],,8,1,3,
{16}5,,7,8,1,,2,1,8,,7,,6,,5,,
{8}4-8[8:1],3,2,1,7-3[8:1],6,5,4,
{16}4h[4:3],,,3p6[8:1],3,,,,,,,,5,,,,
{8}7/1,4/2,8/3,5/7,,1-5[8:1],5-2[8:1],,
{8},,5,4,,8-4[8:1],4-7[8:1],,
{8},,4,5,,4,3,2,
{8}1^4[8:1],8,7,6^1[8:1],5,4,3^6[8:1],2,
{8}1,8p7[8:1],,,1b,,,,
{8}2,6,,6,,5,6,7,
{8}8/4,3,,3,,5,4,3,
{8}6/2,5,,5,,2,4,6,
{8}8/1,4,,4,,1/7,2/4,8/2,
{8}5/7,6,,6,,2/8,7/5,7/1,
{8}4/2,3,,3,,2/5,4/7,1/5,
{8}4/8,5,,5,,4/7,2/5,4/8,
{4}5/1,8b,7b,6b,
{16}5,,2/4,,,,5/3,,,,4/2,,1,8,2,7,
{16}3,,4/6,,,,7/5,,,,4/6,,7,8,6,1,
{16}5,,3/6,,,,5/4,,,,3/6,,4,5,3,6,
{16}2,,8/1,,,,2/7,,3,4,5,6,7b,,,,
{16}7h[8:3],,5,,,,3h[4:1],,,,1,,3,7,2,6,
{16}1h[8:3],,3,,,,7h[4:1],,,,5,,7,3,6,2,
{16}5h[8:3],,1,,,,4h[4:1],,,,8,,1,8,2,7,
{4}1b,8/4,6/2,7/3,
{2}1p3[4:1],6q4[4:1],
{2}2p4[4:1],7q5[4:1],
{2}3p5[4:1],8q6[4:1],
{16}4q5[4:1],,,,,,,,8,,,8,,,8,,
{2}3q6[4:1],7p4[4:1],
{2}2q5[4:1],8p5[4:1],
{2}1q4[4:1],6p3[4:1],
{4}2,8/1,7/2,3/6,
{16}2,,6,5,6,,2,,6,5,6,,1,,1,,
{16}7,,3,4,3,,7,,3,4,3,,8,,8,,
{16}5/4,,2,6,2,,1/8,,7,3,7,,1,,8,,
{16}2,,5,7,1,,4,,2/1,,,7/6,,,4/3,,
{16}2,,7,8,5,,4,,1,2,7,,5,,5,,
{16}6,,3,5,1,,6,,5,7,3,,1,,1,,
{16}2,,8,7,6,,3,,2/1,,3,,4,,5,,
{4}8/7,2/1,4/3,6/5,
{8}3,,3/4,,6,6,6/5,,
{16}3,,3,4,3,,3,,4,,5,,5b/6b,,,,
{8}2,,3/2,,7,7,6/7,,
{16}2,,4,,6,,8,,7/1,,,8/3,,,6/2,,
{8}2/1,,3/8,,8/7,6/1,5/2,,
{16}8/4,,8/4,7/3,2/6,,1/5,,1/8,,2/7,,6/3,,,1,
{16}2,,3,,4/2,,,8,7,,6,,5/7,,,4,
{8}5,2,1,8-4[8:1],,5,6,7,
{16}8,,3,4,5,,6,5,4,,3,,2,,1,,
{8}8-4[8:1],7,6,5,3-7[8:1],2,1,8,
{16}8h[4:3],,,7p2[8:1],7,,,,,,,,1,,,,
{16}8,,3,,2,,6h[4:1],,,,7,,1,2,3,4,
{16},,7/5,,,,8,,7,,6,5,6,,3,,
{8}4-7[8:1],4,5-2[8:1],5,3-8[8:1],3,6-1[8:1],6,
{16}4-8[8:1],,,1>8[16:9],1,,,,,,,,,,,,
{8},1,3,5,7/8,1/2,4/3,6/5,
{16}2,,6,5,4,,3,4,5,,6,,7,,8,,
{8}1-5[8:1],2,3,4,6-2[8:1],7,8,1,
{4}3/8^3[8:1],4,6/1^6[8:1],5,
{4}8h[4:1]/4h[4:1],,2q6[8:1]/6q2[8:1],2-7[8:1]/6-3[8:1],
{8},,1,8,,4p8[8:1]/8p4[8:1],4-6[8:1]/8-2[8:1],,
{8},,8,1,,1q5[8:1]/5q1[8:1],1-7[8:1]/5-3[8:1],,
{8},,1,8,,,1/8,,
{8}3,6/2,1,8,5/7,4,3,5/2,
{8}1-5[8:1],8,7,6-2[8:1],5,4,3-7[8:1],2,
{8}1,8-4[8:1],7,6-2[8:1],6,4-8[8:1],4>5[4:3],4,{1},
{8},,,,4,5,
E

Re:MASTER


名前:
コメント:

タグ:

+ タグ編集
  • タグ:
最終更新:2026年10月04日 21:02