BASIC
ADVANCED
EXPERT
MASTER
(137)
{1},
{4},,,3<6[8:1]/7>2[4:11],
{1}3b,
{1},
{1}C1xh[1:1],
{48}1,,8,,7,,6,,5,,4,,3,,2,,,,8,,,,6,,,,4,,,,,,,1,,,,,,,,,,,3,,,,
{4}8b-5[8:3],7,6-3[8:3],5,
{4}4-1[8:3],3,2-7[8:3],1,
{4}8-3[8:3],1,2-5[8:3],3,
{4}4-7[8:3],5,6-1[8:3],7,
{16}8,,,,2/8,,,6,5,,5,,1/7,,,,
{16}3/4,,,,2/8,,,6,5,,5,,1/7,6,,,
{16}3,4,3,2,3,1,4,8,5,7,6,7,8,6,1,5,
{16}2,4,3,2/5,,1/4,,2/5,,7,5,6,1b-5[8:1],,,,
{16}1/7,,,7,4-7[8:1],,3,,2/4>1[8:1],,,,8,,,4,
{16}4,,,2,5-2[8:1],,6,,5<8[8:1]/7,,,,1,,,5,
{16}5,,,7,4-7[8:1],,3,,2/4>1[8:1],,,,8,,,4,
{16}4,,,2,5,,4h[8:1]/6h[8:1],,,5/7,,,8-4[8:1],3,8,3,
{16}8,,,2,5-1[8:1],,6,,5<8[8:1]/7,,,,1,,,5,
{16}5,,,7,4-8[8:1],,3,,2/4>1[8:1],,,,8,,,4,
{16}4,,,2,5-1[8:1],,6,,5<8[8:1]/7,,,,1,,,2,
{16}2h[16:7],,1,,3,3,,1,,2/8,2/8,,1,1,1,1,
{16}1b,,,2,4-1[8:1],,3/5,,6<1[8:1],,5,,1,,,5,
{16}5,,,7,5-8[8:1],,4/6,,3>8[8:1],,4,,8,,,4,
{16}4,,,2,4-1[8:1],,3/5,,6<1[8:1],,5,,1,,,5,
{16}5,,,7,5,,4/6,,3h[8:1]/5h[8:1],,,,7,1,6,2,
{16}3/5,,,7,5-8[8:1],,4/6,,3>8[8:1],,4,,8,,,4,
{16}4,,,2,4-1[8:1],,3/5,,6<1[8:1],,5,,1,,,3,
{16}3,4,2,5,1,6,8,7,5,6,4,7,3,8,1,2,
{16}4h[16:3],,,6h[16:3],,,8h[16:3],,,2,,,3<6[4:11]/7>2[8:1],,,,
{1}7b,
{1},
{1}C1xh[1:1],
{24}7,6,5,4,3,2,1,,7,,7,,,,7,,,,,7b,,,,,
{16}3/8,,2-5[8:1],1,,1,2,,8<5[8:1],,1/7,,,,,,
{16}3,3,4,4,5-8[8:1],5,6,,4,,,,E2,,C1,,
{16}3,3,1,2,2,8,1,1,7<4[8:1],8,8,8b,,,,,
{16}3,,3,2,,2,1,,7h[4:1]/8,,E6,,E5,,E4,,
{16}2h[8:1]/5h[8:1],,,1/4h[16:3],,,2,5,3,7,4,8h[16:3],B6/E6,,B4/E5,,
{16}2,1,3,1,2,1,2h[4:1],,B3/B4,,8h[4:1],,E6,,C1,,
{16}1h[8:1]/2h[8:1],,,2h[8:1]/3,,,B3/B4/E5,,1/6,,7,7,8,8,1,1,
{16}2,,,4h[16:3]/6h[16:3],,,,,8,,,3h[16:3]/5h[16:3],,,,,
{16}2/6,,,3h[8:1]/7h[8:1],,,8,8,4>1[8:1],8,8,,5h[4:1],,,,
{16}8,8,6,1,1,7,2,2,8h[4:1],,,,B6/E6,,B4/E5,,
{16}1h[8:1],,,2h[8:1]/8h[8:1],,,3,3,1<6[8:1],2,2,2b,1>4[2:1],,,,
{8}1h[8:3],,,,1,E7,E3,C1,
{16}2h[8:1],8,8,,1h[8:1],7,7,,8h[8:1],6,6,,7h[8:1],5,5,,
{16}6h[8:1],4,4,,5h[8:1],3,3,,4h[8:1],2,2,,3h[8:1],1,1,,
{8}2/8,1/7,6/8,5/7,4/6,3/5,2/4,1/3,
{16}6,5,6,5,,4/7,,2/5,,3,4,3,4>1[8:3]/5<8[8:3],,,,
{24},,,,,,,,,,,,2,3x,4x,5x,6x,7x,2,3x,4x,5x,6x,7x,
{24}2/8x-3[8:1],,,,,,4h[4:1],,,,,,2,1x,8x,7x,6x,5x,2,1x,8x,7x,6x,5x,
{24}4x-8[8:1]/8,,,,,,5h[4:1],,,,,,8,1x,2x,3x,4x,5x,8,1x,2x,3x,4x,5x,
{8}2<7[4:1],,7<4[4:1],,4>1[4:1],,7,6,
{24}5-8[8:1],,,,,,3/5,,,,,,7,6x,5x,4x,3x,2x,7,6x,5x,4x,3x,2x,
{24}1x-6[8:1]/7,,,,,,5h[4:1],,,,,,7,8x,1x,2x,3x,4x,7,8x,1x,2x,3x,4x,
{24}1/5x-1[8:1],,,,,,4h[4:1],,,,,,1,8x,7x,6x,5x,4x,1,8x,7x,6x,5x,4x,
{8}7>2[4:1],,2>5[4:1],,5<8[4:1],,2,3,
{24}4-1[8:1],,,,,,4/8,,,,,,7,6,5,1,2,3,8-3[8:1],7,6,2,3,4,
{24}5-1[8:1],,,,,,7,,,,,,2,3,4,8,7,6,1-6[8:1],2,3,7,6,5,
{24}4-8[8:1],,,,,,2,,,,,,7,6,5,1,2,3,8,7,6,2,3,4,
{8}8>3[4:1],,3<6[4:1],,6<1[4:1],,2-6[8:1],2,
{24}2,,,,,,3/7,,,,,,2,1,8,7h[24:5],,,3,2,1,8,7,6,
{48}5h[16:3],,,,,,,,,3-7[16:5],,,,,,,,,,,,,,,4b,,,,,,,,,,,,1,,2,,3,,4,,5,,6,,
{16}7h[16:3],,,6-2[16:5],,,,,7b,,,,8h[4:1],,,,
{16}1,1,1,1,1,1,3,3,3,3,3,3,4,4,5,5,
{16}6,,3,2/4,,6,5/7,,4>1[8:1]/8<5[8:1],,,,4b/8b,,,,
{4}6-1[8:3],7,8-3[8:3],1,
{4}2-5[8:3],3,4-7[8:3],5,
{4}6-3[8:3],5,4-1[8:3],3,
{4}2-7[8:3],1,8-5[8:3],7,
{16}6,,,,1/7,,,3,4,,4,,2/8,,,,
{16}5/6,,,,1/7,,,3,4,,4,,2/8,3,,,
{16}6,5,6,7,6,8,5,1,4,2,3,2,1,3,8,4,
{16}7,5,6,4/7,,5/8,,4/7,,1,2,3,4-1[1:2],5,6,7,
{1}8b,
{1},
{1},
{1},
{1},
E
Re:MASTER
最終更新:2026年04月11日 18:53