EASY
BASIC
ADVANCED
EXPERT
MASTER
(153)
{1},
{4}5,5,5,5,
{4}5,5,5-1[8:1],7b,
{4}3,3,3,3,
{16}4,,5,,4,5,,3,,2/5,,6,5,,4/7,,
{4}5b,5,5,5,
{4}5,5,5,3/6,
{2}3-8[8:1]/4-8[8:1],5-1[8:1]/6-1[8:1],
{4}1-3[8:1]/8-4[8:1],1-5[8:1]/8-6[8:1],1b/8b,4>5[4:3]/5p4[4:3],
{1}4/5,
{16}3,,2/4,,6,5,,4/7,,3,4,,4,3,,2/5,
{16},7,8,,8,7,,1/6,,2,1,,1,2,,3/8,
{16},4,5,,5,4,,3/6,,8,1,,1,8,,2,
{16}3/8,,2/6,,,4/7-3[16:1],,,1-5[16:1]/7,,,1/6,,,8b,,
{16}6,,5/7,,3,4,,2/5,,6,5,,5,6,,4/7,
{16},2,1,,1,2,,3/8,,7,8,,8,7,,1/6,
{16},5,4,,4,5,,3/6,,1,8,,8,1,,7,
{16}1/6,,3/7,,,1/5,,,4b/7b,,,2b/5b,,,4b/8b,,
{16}3,,3,,2/5,,3>8[8:1],4,,4,3,,5,,6,,
{16}6,,6,,4/7,,6<1[8:1],5,,5,6,,4,,3,,
{16}2,,2,,3/8,,2>5[8:1],1,,1,2,,8-4[8:1],,,,
{4}1-5[8:1]/8,1/7pp4[4:1],2/7,3b,
{16}6,,6,,4/7,,6<1[8:1],5,,5,6,,4,,3,,
{16}3,,3,,2/5,,3>8[8:1],4,,4,3,,5,,6,,
{16}7,,7,,1/6,,7<4[8:1],8,,8,7,,1pp5[16:5]*qq5[16:5],,,,
{4}1,,7-3[8:1]/8-4[8:1],7b/8b,
{16}3/5h[8:3],,,6,,,1,,4h[8:3]/6,,,3,,,8,,
{16}3/5h[8:3],,,6,,,1,,1-5[8:1]/2-5[8:1],,,,1/2,,,,
{16}4h[8:3]/6,,,3,,,8,,3/5h[8:3],,,6,,,1,,
{8}2-5[8:1]/6-1[8:1],,2/6,,7b/8b,1b/6b,2b/5b,,
{16}1h[8:3]/7,,,3,,,5,,2/8h[8:3],,,6,,,4,,
{16}1h[8:3]/7,,,3,,,5,,7-4[8:1]/8-4[8:1],,,,7/8,,,,
{16}2/8h[8:3],,,6,,,4,,1h[8:3]/7,,,3,,,5,,
{16}2/7,,3/6,,1-5[8:1]/8-4[8:1],1/8,,1b/8b,,,,,2b/7b,,,,
{16}2-6[8:1]/4,,,6-2[8:1],,,8,,,7h[16:3],,,8-4[8:1],,1,,
{16}2/8,,,3qq5[4:1],,,3/6,,,,,,8b,,,,
{16}1/6,,,3<6[8:1]/8,,,8,,,,7,,8,,1,1,
{16}6,,4,,6,5/7,,4,,5,,3,2/4,,6,,
{16}5/7-3[8:1],,,3-7[8:1],,,1,,,2h[16:3],,,1-5[8:1],,8,,
{16}1/7,,,6pp4[4:1],,,3/6,,,,,,2-6[8:1],,8,8,
{16},,,,7-3[8:1],,1,1,,,1,,8,,2/7,,
{8}1b>4[8:1]/8b<5[8:1],,1b-5[8:1]/8b-4[8:1],,1b/8b,,3/6,7,
{16}6-2[8:1]/8,,,2-6[8:1],,,4,,,3h[16:3],,,4-8[8:1],,5,,
{16}4/6,,,7qq1[4:1],,,2/7,,,,,,4b,,,,
{16}2/5,,,4/7>2[8:1],,,4,,,,3,,4,,5,5,
{16}2,,8,,2,1/3,,8,,1,,7,6/8,,2,,
{16}1/3-7[8:1],,,7-3[8:1],,,5,,,6h[16:3],,,5-1[8:1],,4,,
{16}3/5,,,2pp8[4:1],,,2/7,,,,,,6-2[8:1],,4,4,
{16},,,,3-7[8:1],,5,5,,,5,,4,,3/6,,
{4}1b>4[8:1]/8b<5[8:1],1b-5[8:1]/8b-4[8:1],1b/8b,1p8[4:3]/8<1[4:3],
{1},
{16}6,,1/8,,2,1,,3/8,,7,8,,8,7,,1/6,
{16},3,4,,4,3,,2/5,,6,5,,5,6,,4/7,
{16},5,4,,4,5,,3/6,,7,1,,2,8,,7,
{16}1/6,,3/7,,,2-6[16:1]/5,,,2/8-4[16:1],,,3/8,,,1b,,
{16}3,,1/8,,7,8,,1/6,,2,1,,1,2,,3/8,
{16},6,5,,5,6,,4/7,,3,4,,4,3,,2/5,
{16},4,5,,5,4,,3/6,,2,8,,7,1,,2,
{16}3/8,,2/6,,,4/7,,,2b/5b,,,3b/7b,,,1b/6b,,
{8}3h[4:1],8,6h[4:1],1,4h[4:1],7,5h[4:1],2,
{8}3,4,3/5,4,6,5,4/6,7,
{8}4-7[8:1],3,2/4,,5-2[8:1],6,5/7,,
{16}7/8,,4/5,,1qq6[4:1]/2pp5[4:1],,1/2,1/2,,,,,,,,,
{8}8h[4:1],3,1h[4:1],6,7h[4:1],4,2,5pp1[8:3]*qq1[8:3],
{8}4/6,5,,,,8,1,7,
{4}1/3<6[8:1],8,7p2[8:1]/8,1,
{4}1/2-6[8:1],1-5[8:1]/2,1/8w4[8:1],8b,
{16}7,,6/8,,3,4,,4,,7-4[8:1],8,,8,7,,1,
{16},2-5[8:1],1,,1,2,,8,,7-4[8:1],8,,8,7,,1,
{16},3-8[8:1],4,,4,3,,5,,6-1[8:1],5,,5,6,,4,
{16}4,,3/7,,,2-6[16:1]/5,,,2/8-4[16:1],,,3/8,,,1b,,
{16}2,,1/3,,6,5,,5,,2-6[8:1],1,,1,2,,8,
{16},7-3[8:1],8,,8,7,,1,,2-5[8:1],1,,1,2,,8,
{16},6-2[8:1],5,,5,6,,4,,3-7[8:1],4,,4,3,,5,
{16}5,,2/6,,,4/7-3[16:1],,,1-5[16:1]/7,,,1/6,,,8b,,
{16}4/6,,2/5,,,4/7,,,2/6,,,1-5[16:1]/8-4[16:1],,,1b/8b,,
{1},
{1},
{1},
E
Re:MASTER
(153)
{1},
{4}5b,5,5,5,
{4}5,5,5-1[8:1],2b,
{4}4,4,4,4,
{16}4/5,,5,,4,6,,5,4,5,,6,4,,7,,
{4}2b/6b,3/6,4/6,4/6,
{16}3/6,,,,4/6,,,,5/6,,,5,4-8[8:1],,3,,
{4}2b/4,7/5-1[8:1],5/6b,4/2-6[8:1],
{4}7-3[8:1],1-5[8:1],8b,4qq5[4:3]/6<5[4:3],{1},
{16}3/7,,2,,2,4h[8:1],,3,5,4,6,,7,5h[8:1],,6,
{16}4,5,3,,2,4h[8:1],,3,5,4,6,,6,5,,7,
{16}8,,2/6,,2,4h[8:1],,3,5,4,6,,6,8,,8,
{16}6,,1h[8:1]/5h[8:1],,,3h[8:1]/8h[8:1],,,5h[8:1]/6h[8:1],,,3h[8:1]/4h[8:1],,,2/6,,
{16}2b/6b,,2,,2,4h[8:1],,3,5,4,6,,7,5h[8:1],,6,
{16}4,5,3,,2,4h[8:1],,3,5,4,6,,7,8,,2,
{16}1,,3/7,,7,5h[8:1],,6,4,5,3,,2,1,,7,
{16}8,,5/6,,,2/4,,,1b/2b,,,4b/5b,,,7b/8b,,
{16}1^4[8:1],,1,,5h[16:3],,,6h[16:3],,,7,,7/8,,1,,
{16}2^5[8:1],,2,,6h[16:3],,,7h[16:3],,,8,,1/8,,2,,
{16}3^6[8:1],,3,,7h[16:3],,,8h[16:3],,,6,,5,,4,,
{16}5/3h[8:3],,,2,,,8,,7/4-2[8:1]*-6[8:1],,,,,,,,
{16}1^6[8:1],,1,,5,,4,4h[16:3],,,3,,5,,6,,
{16}7^4[8:1],,7,,3,,2,2h[16:3],,,1,,8,,7,,
{16}6^3[8:1],,6,,1,,2,2h[16:3],,,3,,4q5[8:3],,5,,
{4}6,,7^4[8:1],1b,
{16}3-1[8:1],,,4,3,,5,,4/3-8[8:1],,,4,3,,5,,
{16}4/3-1[8:1],,,4,3^6[8:1],,5,,3,,,,7/8,,,,
{16}6^8[8:1],,,5,6,,3,,2/1-5[8:1],,,2,1,,3,,
{8}4-1[8:1]/6p1[8:1],,4/6,,7b/8b,1b/6b,3b/4b,,
{16}4/6-8[8:1],,,5,6,,4,,6-1[8:1],,,5,6,,4,,
{16}6-8[8:1],,,5,6,,4,,4-1[8:1]*-7[8:1],,,,4,,,,
{16}6-4[8:1],,,1,6,,2,,3-5[8:1],,,8,3,,7,,
{16}4/6,,3/5,,1-5[16:1]/2-5[16:1],1/2,,1b/2b,,,,,3/6,,2/7,,
{16}1/8,,7,5,,3,4,,2V48[4:1],1,3,,2/4,,6,,
{16}7-4[8:1],,1,1,7,,3,3,,6,5,,2b/8b,,,,
{16}4/3^8[8:1],,5,5,3,,7,,6-1[8:1],,5,,4/6,,3,3,
{16}8,,1/7,,2,4,,3/5,,4/6,,7,8,,1/8,,
{16}1/2,,3,4,,6,5,,7V51[4:1],8,6,,5/7,,3,,
{16}3,,2,1,2,,3,4,,7,8,,5/6^1[8:1],,4,4,
{16}6,,2,,3^8[8:1],,5,5,3,,7,,7,,1/7,,
{641}2-5[8:1]/6-1[8:1],,,,,,,,,,,,,,,,,,,,
{639}3,,,,,,,,,,,,,,,,,,,,4,,,,,,,,,,,,,,,,,,,,
{641}5,,,,,,,,,,,,,,,,,,,,6,,,,,,,,,,,,,,,,,,,,
{639}7,,,,,,,,,,,,,,,,,,,,8,,,,,,,,,,,,,,,,,,,,
{641}1,,,,,,,,,,,,,,,,,,,,
{4}2,3b/8b,
{8}2/7,3/6,
{16}4/5,,2,1,,7,8,,6V84[4:1],5,7,,4/6,,2,,
{16}3-8[8:1],,5,5,3,,7,7,,2,1,,4b/8b,,,,
{16}8/7^4[8:1],,1,1,7,,3,,2-5[8:1],,1,,2/8,,7,7,
{16}4,,3/5,,2,1,,2/8,,1/7,,6,5,,4/7,,
{16}3/8,,1,2,,7,5,,3V15[4:1],4,2,,3/5,,7,,
{16}7,,6,5,6,,1,8,,3,4,,4/7-3[8:1],,5,5,
{16}7b,,1,,2-5[8:1],,4,4,2b,,8,,8,,2/8,,
{641}3-8[8:1]/7-4[8:1],,,,,,,,,,,,,,,,,,,,
{639}6,,,,,,,,,,,,,,,,,,,,5,,,,,,,,,,,,,,,,,,,,
{641}4,,,,,,,,,,,,,,,,,,,,3,,,,,,,,,,,,,,,,,,,,
{639}2,,,,,,,,,,,,,,,,,,,,1,,,,,,,,,,,,,,,,,,,,
{641}8,,,,,,,,,,,,,,,,,,,,
{4}7,
{641}1b/5b,,,,,,,,,,,,,,,,,,,,
{639}2/6,,,,,,,,,,,,,,,,,,,,3/7,,,,,,,,,,,,,,,,,,,,
{621}4/8,,,,,,,,,,,,,,,,,,,,,,,,,,,,,,,,,,,,,,,,,,,,,,,,,,,,,,,,,,,,,,,,,,,,,,,,,,,,,,,,,,,,,,,,,,,,,,,,,
{4}3q4[4:3]/7q8[4:3],{1},
{16}2/6,,2/6,,2,4,,4,3,5,4,,7,5,,5,
{16}6,4,5,,2,4,,4,3,5,4,,7,8,,2,
{16}1,,2/8,,2,4,,4,3,5,4,,7,8,,8,
{16}6,,1h[8:1]/5h[8:1],,,3h[8:1]/8h[8:1],,,5h[8:1]/6h[8:1],,,3h[8:1]/4h[8:1],,,2/6,,
{16}1b/5b,,1/5,,2,4,,4,3,5,4,,7,5,,5,
{16}6,4,5,,2,4,,4,3,5,4,,7,8,,2,
{16}1,,3/7,,6,5,,5,6,4,5,,2,4,,8,
{16}7,,5/7,,,2/4,,,1b/2b,,,4b/5b,,,7b/8b,,
{16}1-5[8:1],,4,4,1,,6,,8-3[8:1],,3,3,8,,2,,
{4}4/1^6[8:1],1/5-1[8:1],5/2^5[8:1],2/8b,
{16}7h[8:1],,8,8,5h[8:1],,4,6,2h[8:1],,1,1,3h[8:1],,4,,
{16}2b/5b,,4b/7b,,8bw4[8:1],,1b/7b,1b/7b,,,,,2/6,,1,1,
{16}8-4[8:1],,5,5,8,,3,,1-5[8:1],,6,6,1>8[8:3],,7,,
{8}1/8,,,,1/2,3,4,5,
{4}6-8[8:1],6/4-2[8:1],4/5-1[8:1],5/2-6[8:1],
{4}2/7b-3[8:1],7/4b^7[8:1],4/8bw4[8:1],8b,
{16}2/6,,2/6,,7,5,,5,6,4,5,,2,4,,4,
{16}2,6,4,,7,5,,5,7,3,5,,2,1,,7,
{16}8,,1/5,,2,4,,4,2,6,4,,7,8,,2,
{16}1,,4h[8:1]/8h[8:1],,,1h[8:1]/6h[8:1],,,3h[8:1]/4h[8:1],,,5h[8:1]/6h[8:1],,,3/7,,
{16}4b/8b,,4/8,,7,5,,5,6,4,5,,2,4,,4,
{16}2,6,4,,7,5,,5,7,3,5,,2,1,,7,
{16}8,,2/5,,3,4,,4,2,6,4,,7,8,,2,
{16}1,,3/4,,,5/7,,,7b/8b,,,4b/5b,,,1b/2b,,
{16}3/8,,4/7-3[16:1],,,7/2-6[16:1],,,2/8-4[16:1],,,8/1w5[16:1],,,1b,,,
E
最終更新:2026年10月04日 18:13