BASIC
ADVANCED
EXPERT
MASTER
(150)
{1},
{4}3x/5x,4x/6x,3x/5x,4x/6x,
{1}3xh[4:27]/5xh[4:27],
{1},
{1},
{1},
{1},
{1},
{1},
{4}4x/6x,3x/5x,2x/6x,3x/7x,
{1}4p7[2:1]/8p3[2:1],
{1}3<6[2:1]/7>2[2:1],
{1}2q6[2:1]/6q2[2:1],
{1}2p5[2:1]/6p1[2:1],
{1}1z5[2:1]/5V71[2:1],
{1}1qq6[2:1]/5>2[2:1],
{1}2V46[2:1]/6<2[2:1],
{1}2V86[2:1]/6z2[2:1],
{2}1q5[8:1]/5q1[8:1],1-6[8:1]/5-2[8:1],
{2}2<7[8:1]/6>3[8:1],3q7[8:1]/7q3[8:1],
{2}3-6[8:1]/7-2[8:1],2<7[8:1]/6>3[8:1],
{2}3p7[8:1]/7p3[8:1],3-6[8:1]/7-2[8:1],
{8}1-4[8:1]/5-8[8:1],1/5,,,4-1[8:1]/8-5[8:1],4/8,,,
{8}2-6[8:1],2,1-5[8:1],1,8-4[8:1],8,7-3[8:1],7,
{4}1b,2b/6-2[8:1],3b-8[8:1]/6,3/7-3[8:1],
{8}4-1[8:1]/7,,4/5-8[8:1],,3/5b,1x,1x,,
{8}3/8-6[8:1],3,3/8-2[8:1],,4/8-6[8:1],4h[4:1],8-2[8:1],,
{8}8-6[8:1],5,5/8-2[8:1],,4/8-6[8:1],4,4/8-2[8:1],,
{8}3/8-6[8:1],3,3/8-2[8:1],,4/8-6[8:1],4h[4:1],8-2[8:1],,
{8}8-6[8:1],5,5/8-2[8:1],,4h[4:1]/8,,8b,,
{8}1-3[8:1]/6,6,1-7[8:1]/6,,1-3[8:1]/5,5h[4:1],1-7[8:1],,
{8}1-3[8:1],4,1-7[8:1]/4,,1-3[8:1]/5,5,1-7[8:1]/5,,
{8}1-3[8:1]/6,6,1-7[8:1]/6,,1-3[8:1]/5,5,1/5,,
{4}7<4[8:1],1>4[8:1],8<5[8:1],4h[4:1],
{8}C1xh[4:5],,,,,,1x,1x,
{16}1x,,1x,,1x,,1x,,1x,,1xh[4:1],,,,6x,6x,
{8}6x-4[8:1],2,2/6-8[8:1],,3/6-4[8:1],3h[4:1],6,,
{8}4/5,5/7,1/8,2/4,4-1[8:1]/5-8[8:1],,,,
{8}3-5[8:1]/7,7,3-1[8:1]/7,,3-5[8:1]/6,6h[4:1],3-1[8:1],,
{16}3-5[8:1],,8,,3/8,,,,3/7,,8,8,1,,2/7,,
{8},1/8,3/6,4>1[8:1]/5<8[8:1],2/7,4/5,,2b/7b,
{8}B3/E4,E5,B6/E6,E3,B1/E2,E7,B8/E8,,
{1}2h[1:1],
{1}4h[1:1],
{1}5h[1:1],
{1}7h[1:1],
{4}4,4,4,4,
{4}5,5,5,5,
{4}E1,E2,E3,E4/E5,
{4}E6/E7,E1/E8,C1f/E2/E3,E4/E5,
{4}6h[1:1],B5,E4,E2,
{4}3h[1:1],B4,E6,E8,
{4}6h[1:1],B5,E4,E2,
{4}3h[1:1],B4,E6,E8,
{8}5,5,5,5,2,2,7,7,
{8}4,4,8,8,3,3,6,6,
{16}1,8,3,6,2,7,4,5,1,8,3,6,2,7,1,,
{4}B8/E8,B1/E2,B6/E6/2,B3/E4/8-6[8:1],
{8}4-2[8:1]/8,5,4/8-6[8:1],,4-2[8:1]/8,5,4/8-6[8:1],1,
{8}4/8,5,3<6[8:1]/7>2[8:1],1/5,3/7,,1-3[8:1]/5,,
{8}1/5-7[8:1],4,1-3[8:1]/5,,1/5-7[8:1],4,1-3[8:1]/5,8,
{8}1/5,4,2-7[8:1]/6-3[8:1],3/7,2/6,,1-3[8:1]/5,,
{8}1/5-7[8:1],4,1-3[8:1]/5,,1/5-7[8:1],4,1-3[8:1]/5,8,
{8}1/5,4,2<7[8:1]/6>3[8:1],4/8,2/6,,4/8-6[8:1],,
{8}4-2[8:1]/8,5,4/8-6[8:1],,4-2[8:1]/8,5,4/8-6[8:1],1,
{8}4/8,5,3/7,8,B3/E4/8,,B6/E6/1-3[8:1],,
{8}1/4-8[8:1],5,4/7-5[8:1],,4-8[8:1]/7,3,1-3[8:1]/4,2,
{8}1/8,7,2<7[8:1]/6>3[8:1],4/8,2/6,,4/8-6[8:1],,
{8}5-1[8:1]/8,4,2-4[8:1]/5,,2/5-1[8:1],6,5/8,7,
{8}1b/5b,3b/7b,2b-5[8:1]/6b-1[8:1],4b/8b,2b/6b,,4/8-6[8:1],,
{8}5-1[8:1]/8,4,2-4[8:1]/5,,2/5-1[8:1],6,5/8-6[8:1],7,
{8}1/8,2,3<6[8:1]/7>2[8:1],1/5,3/7,,1/5,,
{8}2-8[8:1]/5,7-3[8:1],2V46[8:1],7,2,,7<4[8:1],6,
{4}2<7[8:1]/7,2/5>2[8:1],5/8<5[8:1],3-7[8:1]/8,
{1}C1f/3,
{1},
{1},
{1},
E
Re:MASTER
最終更新:2026年03月30日 22:25