BASIC
ADVANCED
EXPERT
MASTER
(150)
{1},
{1}8h[1:1],
{16}5h[4:1],,,,,,5/7,,,,,,5/6,,3,3,
{16}4h[4:1],,,,,,2/4,,,,,,3/4,,6,6,
{16}5h[4:1],,,,,,5/7,,,,,,4/5,,3,3,
{16}4v1[8:1],,,,2,,,,8h[16:3],,,7h[16:3],,,6,,
{16}6-4[12:1],,,,3,,,,1h[16:3],,,2h[16:3],,,3,,
{16}3v6[8:1],,,,8,,,,7h[16:3],,,6h[16:3],,,5,,
{16}5-1[8:1],,,,2,,,,4h[16:3],,,3h[16:3],,,1,,
{16}2/8,,6,5,7,,3,4,2,,8,1,2x/7x,,,,
{8}5/3v5>4-8[8:3],,7,7h[4:1],,,1/7,3,
{4}5<8[4:1],8p2[4:1],2>5[4:1],1,
{8}8h[4:1],,7,1/6-4[12:1],,3h[4:1],,4,
{16}2/5,,6,5,7,,3,4,2x,,8,8,1b,,,,
{8}2/6,2,2/4,2,3/7,3,3/5,3,
{8}2/6,6,4/6,6,3/7,7,5/7,7,
{12}4,3,2,8,7,6,3,2,1,7,6,5,
{8}4x<7[8:1]/8x>3[8:1],,,,1-5[8:1]/2-4[8:1],8,1b/2b,,
{16}6x/7xh[16:11],,,,6,,,,6,,,6,7,,6x/7x,,
{16}5x/8xh[16:11],,,,5,,,,5,,,5,8,,5x/8x,,
{16}6xh[16:11]/7x,,,,7,,,,7,,,7,6,,6x/7x,,
{8}5xh[2:1]/8x,,8,,8<5[8:1],5,8x,,
{16}2x/3xh[16:11],,,,2,,,,2,,,2,3,,2x/3x,,
{16}1xh[16:11]/4x,,,,4,,,,4,,,4,1,,1x/4x,,
{8}2x/3x,,5/8,2x/3x,,5/8,2x/3x,1/4,
{4}3h[8:1]/2-8[12:1],5h[8:1]/2-4[12:1],7h[8:1]/2-6[8:1],1x/2x,
{16}7/8,,1,,2/4,,5,,3/7,,2,1,2,,6,5,
{16}7-4[8:1],,8,,4,,3,,2/6,,7,8,7,,3,4,
{16}2>5[8:1],,1,,5,,6,,3/7,,2,1,2,,6,5,
{16}7,,3,4,2,,1/5,,7<3[8:1]/8<5[16:1],,1,,7x/8x,,,,
{16}1/2,,8,,5/7,,4,,2/6,,7,8,7,,3,4,
{16}2v5[8:1],,1,,5,,6,,3/7,,2,1,2,,6,5,
{16}7h[4:1],,,,8,,5/6,,3/4,,1/2,,3/8,,7,5,
{4}6v1[8:1],6/4<7[8:1],4/8w4[8:1],8b,
{8}2h[8:7]/6,,,,,,,4,
{16}3/5h[8:3],,,,,,4,,5,,,4/6,,,3/7,,
{8}3/7h[8:7],,,,,,,5,
{8}4h[8:3]/6,,,5,5-1b[8:1],4,,,
{16}2/8,,8,,4/8,,8,,3/7,,7,,5/7,,6,6,
{16}4,,4,,4/5,,4,,3/7,,3,,3/4,,2,2,
{12}8,7,6,4,3,2,7,6,5,3,2,1,
{4}B5/B6/E6f,B2/E3f,A8f,4bw8[8:1],
{4},5/3V57[8:1],1<3[16:3],3V57[8:1],
{4}1<3[16:3],3V57[8:1],1<3[16:3],3-7[8:1],
{4}1b,4/6V42[8:1],8>6[16:3],6V42[8:1],
{4}8>6[16:3],6V42[8:1],8>6[16:3],5bxh[1:2],
{8}7,4,6,3,7,4,6,3,
{8}7,4,6,3,7,4,6<8[12:1],,
{4}4<6[12:1],2>4[12:1],8>2[12:1],6,
{8}3h[8:1],4,6h[8:1],5,1h[8:1],2,8h[8:1],7,
{4}3x/5x,4/6V42[8:1],8>6[16:3],6V42[8:1],
{4}8>6[16:3],6V42[8:1],8>6[16:3],6V42[8:1],
{4}8b,5/3V57[8:1],1<3[16:3],3V57[8:1],
{4}1<3[16:3],3V57[8:1],1-5[8:1],4x,
{8}2/4x,5,3,4x/6,2,5,3/4x,6,
{8}2/4x,5,3,4x/6,2,5,3/4x,6,
{16}2/4xh[8:1],,5,,3/4xh[8:1],,6,,2/4x,,5,4x,3,,4x/6,,
{4}7<3[4:1],3>7[4:1],7<3[4:1],3b,
{64}1h[2:7],,,,,,,,,,,,,,,,E7,B6,,,,,,,,,,,,,,,,,,,,,,,,,,,,,,,B5,E5,,,,,,,,,,,,,,,
{64},,,,,,,,,,,,,,,,D6,A5,,,,,,,,,,,,,,,,,,,,,,,,,,,,,,,E7,B6,,,,,,,,,,,,,,,
{64},,,,,,,,,,,,,,,,B5,E5,,,,,,,,,,,,,,,,,,,,,,,,,,,,,,,D6,A5,,,,,,,,,,,,,,,
{64},,,,,,,,,,,,,,,,E7,B6,,,,,,,,,,,,,,,4-8[8:1],,,,4,,,,,,,,,,,,5x,,,,,,,,,,,,,,,,
{8}1/7,1,2/4,2,3/8,3,4/5,4,
{8}2/8,8,5/7,7,1/6,6,4/5,5,
{12}1,2,3,5,6,7,2,3,4,6,7,8,
{16}2,1,2,1,3,8,3,8,4x-1[8:1],,5x/6x,,7x,,,,
{16}8b,,,,,,,,,,,,,,3/4,3/4,
{16}1bx/5b,,,,,,,,,,,,,,5/6,5/6,
{8}4b/8bx,,,2/5,,4/7,4/7,5/6,
{12}1/8,,,1/8,,,1-5[8:1]/8-4[8:1],1/8,1/8,1bx/8bx,,,
{16}2>5[8:1],,6v1[8:1],,2,,6,,3,,3,4,2,,7,8,
{16}7v4[8:1],,3>8[8:1],,7,,3,,6,,6,5,7,,2,1,
{8}2>5[8:1],2,1/2,7<4[8:1],7,7/8,2-6[8:1],2,
{4}2/1-5[8:1],1/8-4[8:1],8/7-3[8:1],3x/7,
{8}1,2/8,7,5/6,3,2/4,6,7/8,
{8}2>5[8:1],5<8[8:1],2,,1>7[4:1],,,,
{8}8,1/7,2,3/4,6,5/7,3,1/2,
{8}7p3[8:1],8,1<6[8:1]*>4[8:1],,,,2h[8:1]/8h[8:1],,
{16}7/3qq5[8:3],,,,6,,8h[4:1],,,,,,1/7,,3,4,
{8}2,1/8,6,5/7,3,2/4,8,1/7,
{12}2,2,2,4,4,4,5,5,5,7,7,7,
{32}2,,1,,3,,8,,4,,7,,5,,6,,2,3,4,5,6,7,8,1,2b/6b,,,,,,,,
{16}8xh[8:5],,,,5,,,,,,5,6,5,,4/7,,
{16}1h[8:5],,,,4,,,,,,4,3,4,,2/5,,
{8}8,7,2,3,5h[8:1],,3h[8:1],,
{8}4,5,3,2,7-4-6[16:3],8,,,
{16}2x,,3,,6,,5,,,,3,4,2,,1/5,,
{16}7,,6,,3,,4,,,,6,5,7,,4/8,,
{8}1x/2x,3,6h[8:1],5,7x/8x,6,3h[8:1],4,
{16}1x/2x,,3,8,4,7,5,6,4,5,3,4,2q5[8:7],5,6,7,
{1}8h[8:7],
{1},
{1},
{1},
E
Re:MASTER
最終更新:2026年04月05日 13:51