BASIC
ADVANCED
EXPERT
MASTER
(125)
{2},{24}3,4,5,6,4h[6:1],,,,5,{8}5,
{24}6,,57,,,3,{8}4,{24}1,,28,,,6,{8}5,{4}47,
{24}3,,24,,,6,{8}5,{24}8,,17,,,6,{8}5,{24}1,,1,8,,8,
{24}3,,24,,,6,{8}5,{24}8,,17,,,3,{8}4,{4}25,
{24}6,,57,,,3,{8}4,24,{4}5v8[8:1]*-2<1[8:1],5b,
{8}2x/7hx[4:1],8,1h[4:1],8,{24}7,,7,,,56,,,45,,,3,
{8}4,25,3/6-3[8:1],47,{4}6-1[8:1],5/6>7[8:3],
{2}Cf,{8}5,46,{4}46,
{8}12,18,{24}8-3[8:1]/7-3[8:1],,78,{8},{4}8-5[8:1]/7-5[8:1],78,
{8}2h[4:1]/7,1,8h[4:1],1,{24}2,,2,,,34,,,45,,,6,
{8}5,47,3-7[8:1]/6,25,{4}3-8[8:1],3<2[8:3]/4,
{2}Cf,{8}4,35,{4}35,
{8}78,{24}16,,16,,,3,{8}4,{4}25,56,
{8}7<4[8:1],4q8[8:1],3,2,2>5[8:1],5p1[8:1],6,7,
{8}7>2[8:1],1,3pp2[4:1],3,{4}7,{8},4/8-4[8:1],
{8}4-8[8:1]/8,3,2-6>3[4:1],2,{4}7h[4:1],{8},1-6[8:1]/6,
{8}1/6-2[8:1],7,8-4pp5[4:1],8,{2}3h[4:1],
{8}2>5[8:1],5qq3[8:1],6,7,7<4[8:1],4pp6[8:1],3,2,
{8}2-6[8:1],5,4q8[8:1],3,{4}2b,1-5-3[8:1],
{4}1-5-7[8:1],1-5-2[8:1],1-5-8[8:1],1-5-1b[8:1],
{2}1qq5b[4:1]*pp5b[4:1],{4},B5/E5/E6,
{4}1>5[8:1],16,{8}7,{24}46,,46,,,2,,,2,
{4}4<8[8:1],34,{8}56,56,7-2[8:1],6,
{8}5-8[8:1]/7,4,3-6[8:1]/5,2,1-4[8:1]/3,8,1/7-3[8:1],6,
{4}2h[4:1]/7,{24}4-1[8:1],5,6,{8}7,7,8,1x/8x,{24}6,,6,
{8}4,37,{4}37,{8}2-7[8:1]/6-3[8:1],37,{4}26,
{8}1>4[8:1]/8<5[8:1],45,{4}8-4[8:1]/1-5[8:1],18,{8}36,18,
{8}18,{24}5,,46,,,7,{8}78,{24}4,,35,,,2,{8}1/2>7[4:1],78,
{2}Cf,{4}1x/7x,2-7[8:1]/6-3[8:1],
{4}2b/6b,A1/A5f/D2/D6/E2/E6,{24}6,,6,,,18,,,3,{8}4-7[8:1],
{8}2/5-1[8:1],4,{4}5,{24}2,,2,4,,4,5,,5,7,,7,
{8}2-5[8:1],1,2/8-3[8:1],7,6-1[8:1]/8,5,{4}4q5<3[2:1]/6,
{2},{8},5,46,37,
{4}1v4[8:1]*-3[8:1],1v6[8:1]*-7[8:1],1>2v4[8:1]*-4[8:1],1<8v6[8:1]*-6[8:1],
{4}1>2v4[8:1]*-4[8:1],1<8v6[8:1]*-6[8:1],1,{8}3x/5x,1,
{8}57,8,24,6,78,4<2[8:3],{4}12,
{2},{4}45,{8}1-5[8:1]/2-4[8:1],18,
{4}12,{8}7-5b[8:1]/8-4b[8:1],18,{4}78,{8}18,7,
{8}57,{24}2,,4>5[24:7],,,6,{8}5,{2}Cf,
{8}24,24,{24}3,,3,5,,26,{8},38,{24}7,,7,5,,48,
{8},16,{24}2,,2,4,,15,{8},47,{24}6,,6,5,,5,
{8}7,57,{24}6,,6,4,,37,{8},12,{24}2,,2,4,,15,
{8},78,{24}7,,7,5,,48,{8},26,{4}2q6p2[4:1]/6,
{8}7,8,1q5p1[4:1],1,6,7,8q4p8[4:1],8,
{8}5,6,7q3p7[4:1],7,4,5,6q2p6[4:1],6,
{8}3,4,5,5,2,2,3h[24:5]/5,{24},,4x,
{24},,4,5,6,7,8,1,2,3,4,5,{8},27,{4}B4/B5/E5f,
{4}6h[8:1]/8h[8:1],1h[8:1]/3h[8:1],{8}5-1[8:1]/7,{24},,6,{8}5,6>8[8:5],
{8},E8,E1,E2,E3,E4,{4}E5,
{8}6x,{24}78,,78,,,4,{8}5,3,{24}12,,12,,,8,1,,1>4[8:1],
{8},{24}5,6,7,{8}8,6x,{12}47,3,3,25,6,6,
{4}4h[8:1]/7h[8:1],2h[8:1]/5h[8:1],{8}36,{24},,2,4-1[8:1],,7,{8}5,
{4}4/8-5[8:1],4w8[8:1]/8,4,{8}17,2,
{12}38,6,6,58,2,2,38,6,6,5qq2[8:3]*pp8[8:3]/8,2,2,
{2},{4}A2/A3/A6/A7/D3/D7,4b/5b,
{2}3b-1b[8:1]/6b-8b[8:1],{4}27,45,
{8}37,{24}26,,26,{48},,,,8,7,6,5,4,3,2,1,{8}8w4[8:1],2b/6b,{4},
{8}7-4[8:1],8,1-6[8:1]/7,2,1/3-8[8:1],4,{4}3/5p4>7[2:1],
{2},{8},34,25,16,
{4}8-4[8:1]/7v5[8:1],8v2[8:1]/7-3[8:1],7v4[8:1]/8<5[8:1],8v3[8:1]/7>2[8:1],
{4}8<6v4[8:1]/7-4[8:1],8-3[8:1]/7>1v3[8:1],78,{8}5x/6x,8-4[8:1],
{8}4-8[8:1],3,2,2-6[8:1],
{8}6-2[8:1],7,8,8,
{4}7<4[8:1],3>8[8:1],{8}5,6,7-5[8:1]/8-4[8:1],34,
{4}78,{8}1-5b[8:1]/2-4b[8:1],56,{4}12,{8}18,2,
{8}24,{24}7,,5<4[24:7],,,3,{8}4,{2}Cf,
{24}7,,68,,,2,{8}4,{24}1,,28,,,6,{8}4,{24}1,7,3,{8}1,
{24}2,,13,,,7,{8}5,{24}8,,17,,,6,{8}4,{24}1,,1,5,,5,
{24}3,,24,,,6,{8}5,{24}8,,17,,,3,{8}4,{24}8,2,6,{8}8,
{24}7,,68,,,2,{8}4,35,6v1qq7[4:1]/2bv5qq3[4:1],17,
E
Re:MASTER
最終更新:2026年01月18日 13:00