BASIC
ADVANCED
EXPERT
MASTER
(130)
{4}8h[1:4],,,,,,,,Cf,,,,Cf,,,,
{4}1>4[4:4],,,,,,,4,8<5[4:4],,,,,,,5,
{4}1>4[4:4],5,5,6,6,5,6,4/7,
{4}8<5[4:4],4,4,3,2,
{8}1-4[8:1],1,5,,2/7,,
{16}3h[4:4],,,4,4-1[8:1],,5,,,,,,5,,4,,
{16}6h[4:4],,,5,5-8[8:1],,4,,,,,,4,,5,,
{16}3h[4:4],,,4,4-1[8:1],,5,,,,,,5,,4,,
{8}5,6,7-5[8:1],5v3[8:1],,,,,
{8}3-5[8:1]/5,,6,6,5/7,4,4,5,
{8}3-5[8:1]/5,,6,6,5/7,4,4,5,
{8}3-5[8:1]/5,,6,6,5/7,4,4,5,
{8}3-5[8:1]/5,,6,6,5/7,8,1/8,,
{8}3-5[8:1]/5,,6,6,3-5[8:1]/7,7,6,6,
{8}3-5[8:1]/5,,6,6,3-5[8:1]/7,7,8,7,
{8}6-4[8:1]/4,,3,3,6-4[8:1]/2,2,3,3,
{8}6-4[8:1]/4,,3,3,2/6,
{16},5,5,4,6,5,4/7,,,,
{4}3-6[4:5],E8/B8,,B1,,E2,,3,
{4}6-3[4:5],E2/B1,,B8,,E8,,
{4}2-7[4:2],5,5,5,
{4}7-2[4:2],4,4,4,
{8}3-6[8:1],3,7-2[8:1],7,3-6[8:1],3,7,8,
{16}1,1,8,8,
{32}E1,E8,E7,E6,E5,E4,E3,E2,E1,,,,,,,,
{8}1/8,,3/5,2V48[8:1]/4<8[8:1],,2x/4x,,2-7[8:1]/4,,8h[4:1]/2,,2,
{8}4/6,3,2<6[8:1],6V83[8:1],5,5,,2,4/6,7,8-4[8:1],4q8[8:1],3,2,
{16}2h[16:3],,,4,,,E2/B2/B3/E4,,,,1/8,,
{8}2/4,3/5,4/6,5>1[8:1]/7V51[8:1],,5x/7x,,7-2[8:1]/5,,1h[4:1]/7,,7,
{8}3/5,6,7>3[8:1],3V16[8:1],4,4,,1,3-8[8:1]/7-4[8:1],2/6,3/7,,3/7,,
{8}4/5,2/5,3/7,1/8,3b/6b,,,,
{1}Cf,,,
{8}1-5[8:1],,1b,,
{32}E1,E8,E7,E6,E5,E4,E3,E2,E1,,,,,,,,
{16}4/6h[8:1],,5,5,7,,1,8h[8:1],,5,5,,8,8,1,,
{16}5/3h[8:1],,4,4,2,,8,1h[8:1],,4,4,,1,1,7,,
{16}4/6h[8:1],,5,5,7,,1,8h[8:1],,5,5,,8,8,2,2,
{16}5,5h[8:1],,4,6,3,4h[8:1],,1x,1x,1x,1x,1x/Cf,,,,
{16}8/2h[8:1],,1,1,3,,5,5h[8:1],,1,1,,6,6,5,,
{16}1/7h[8:1],,8,,5/6,,1,1,
{12}1/8,5/7,4/6,3/5,2/4,1/8,
{16}1/8,,7,7,2,,5,5h[8:1],,1,1,,7,,5/6h[8:1],,4,4,5,5,2,2,8,8,
{32}E1,E8,E7,E6,E5,E4,E3,E2,E1,,,,,,,,
{16}1,1,8,8,4,4,5,5,1h[4:1],,,,8,,,,
{4}4-1[24:1]/5-8[24:1],
{72}4x/5x,E5,Cf,E1,,,,,,,,,,,,,,,
{8}7-2[8:1],7,4-1[8:1],4,8,8,3/6,4/5,
{8}7>3[8:1],3V16[8:1],4,4,,7,4/6,2,1-5[8:1],5p1[8:1],6,7,
{16}7h[16:3],,,5,,,E8/B7/B6/E6,,,,1/8,,
{8}5/7,4/6,3/5,2V48[8:1]/4<8[8:1],,2x/4x,,2-7[8:1]/4,,8h[4:1]/2,,2,
{8}3-7[8:1]/5-8[8:1],4,3/5,,3/6,4/5,
{16}3h[8:1]/6,,,7,5/8,,3/6h[8:1],,,2,1/4,,
{16}3/6,,4/6,,3/5,,6,5,,3,4,,7,8,,2,1,,3/5,,
{8}4/6-1[8:1],7,3-8[8:1]/6,2,3/5-1[8:1],7,4-8[8:1]/5,2,
{8}4/6-1[8:1],7,3-8[8:1]/6,2,3/5-1[8:1],7,4-8[8:1]/5,2,
{8}4/5,5,4/5,5/7,8/1,2/4,4/5,
{16}6,6,5,,E8/B7,,E2/B2,,E5,,Cf/E1,,,,,,,,
{4}4>1[4:4],5,5,5,4,5,
{8}1/6,7,4/6,3,
{4}4/5<8[4:4],4,4,4,5,4,
{16}3,3,6,6,4,4,5,5,
{16}3h[4:3],,,4,4-1[8:1],,6,,,,,,4,3,5,4,
{16}6h[4:3],,,5,5-8[8:1],,3,,,,,,5,6,4,5,
{16}3h[4:3],,,4,4-1[8:1],,6,,,,,,4,3,5,4,
{16}6,6,2,2,7,7,1,1h[8:1],,8,8,,
{16}2/7,,2/7,,E1/B1/B8,,,B4/B5/E5,,,B2/B3/C/B6/B7,,
E
Re:MASTER
最終更新:2026年01月24日 02:26