アットウィキロゴ

Restricted Access

アーティスト Knighthood

BPM BASIC ADVANCED EXPERT MASTER Re:MASTER
185 4 7+ 11 13+ -

EXPERT MASTER Re:MASTER
譜面制作者 アマリリス Luxizhel -

BASIC


ADVANCED


EXPERT

(185){1},
3^6[4:5],,7^4[4:5],,2>6[4:5],,7z3[1:1],{4},,2,,
{8}53,,53,,2h[4:5],,,,4,4,,5,5,,4,,
43,,43,,5h[4:5],,,,2,2,,1,1,,2,,
43,,12,,7h[8:7],,,,8,8,,1,1,,82,,
7h[4:1]/3h[4:1],,,,64,,6-2[2:1]/4-8[2:1],,,,,,,,,,
1b/2b,,8,7,6h[4:1],,5,,4,4,5,,3h[4:1],,4,,
6,6,5,,7h[4:1],,8,,1,1,8,,12,,43,,
2,2,1,,43,,52,,6,6,5,,78,,61,,
2,2,1,,43,,5h[4:13]/2,,3p6[2:1],,,,,,,,
{4}6x,6,6,6,7,7,6,6,4h[4:7],3,3,3,2,2,3,3,
5bx/4bx,75,2h[4:1],4,4bx/3bx,75,2h[4:1],4,
4bx/3bx,75,4bx/3bx,7q2[4:3]/5,,,,,

12,1/2V46[4:1],,,78,7-3[8:1]/8,,,
2h[4:1],4h[4:1],5h[4:1],7,78,65,43,12,
8h[4:1]/1h[4:1],,7-4[8:1]/8,,3,12,1/2-5[8:1],,
6,7<3[4:1]/8p3[4:1],,,1b/2b,5b/3b,6b/2b,,
{8}43,43,{4}43,1h[8:1]/2h[8:1],12,7h[8:1]/8h[8:1],78,6h[8:1]/5h[8:1],5x/4x,
4h[8:1]/3h[8:1],54,6h[8:1]/5h[8:1],43,2h[8:1]/3h[8:1],2x-7[8:1]/3x,,,
6h[8:1]/5h[8:1],65,7h[8:1]/8h[8:1],1h[8:1]/2h[8:1],
4h[8:1]/3h[8:1],43,8h[8:1]/1h[8:1],{8}78,78,
{4}7bx/8bx,6bx/4bx,1bx/2bx,5bx/3bx,7bxh[2:1]/8bxh[2:1],,,,
{8}6,6,6h[4:1],,8h[4:1],,1h[4:1],,3h[4:1],,4h[4:1],,5h[4:1],,7,7,
7h[4:1],,5h[4:1],,4h[4:1],,2h[4:1],,1h[4:1],,8h[4:1],,6,,65,,
7b,7,5,5,4,4,2b,,3bx,3,1,1,8,8,6b<4[2:1],,
,,,,,,7bx/5bx,,7bx/5bx-1[8:1],,,,6b/2b,6b/2b,,,

{2}3h[2:1],4,6h[2:1],E6,7h[2:1],5,2h[2:1],E4,
3h[2:1],4,6h[2:1],B5,7h[2:1],5,{4}4,4,53,,
E6,E7,E8,E1,E2,E3,E4/A3,,E2,E1,E8,E7,E6,E5,E4/D4,,
A5,A6,A7,A8,A1,A2,A3/D4,,A1,A8,A7,A6,A5/A4/E5/D5f,,,,
65,65,7,7,65,65,4,3,43,43,2,2,43,43,5,6,
{8}7,7,5,5,6,6,6x/4x,,2,2,4,4,1,1,5x/1x,,
7bh[2:1]/3bh[2:1],,,,,,,,B6/B5/B4/B3/Cf,,,,,,,,

1,2,34,,8,7,65,,4,3,12,,1-5[8:1]/2-5[8:1],,,,
6,6,5,,78,,12,,3,3,4,,65,,74,,
3,2,81,,7,,65,,6,5,43,,4-8[8:1]/3-8[8:1],,,,
7,7,8,,75,,42,,1,1,8,,7-3[8:1],,,,
2,2,4,4,5bx/3bx,,62,62,6b/2b,,75,,42,,12,,
1-5[8:1]/2-6[8:1],,,,7-3[8:1]/8-4[8:1],,,,1-6[8:1]/2-6[8:1],,,,7-3[8:1]/8-3[8:1],,,,
2,2,12,,42,,6bx/5bx,,7,7,78,,75,,4bx/3bx,,
4b-7[8:1]/3b-7[8:1],,,,6b-2[8:1]/5b-2[8:1],,,,5b-1[8:1]b/4b-8[8:1]b,,,,7b/2b,,,,

{1}2^7[4:5],,6^1[4:5],,3>7[4:5],,6s2[1:1],,
{8}E2,,B3,E4,,,,,A6/B6,,,,A5/B5,,,,
E8,,B6,E6,,,,,A3/B3,,,,A2/B2,,,,
E4,,B2,E2,,,,,A6/B6,,,,A7/B7,,,,
E6,,B7,E8,,,,,A2/B2,,A4/B4,,A6/B6,,A8/B8,,
E

MASTER

(185)
{1},

{1}2bx/7bx,
{16}5hx[4:1]/E6,B6,B7,E8,{4},{16}1hx[4:1]/E2,B2,B3,E4,{4},
{1},
{16}8hx[4:1]/E8,B7,B6,E6,{4},{8},{16}4hx[4:1]/E4,B3,B2,E2,{8},
{2},{4},{8},{16}5hx[16:3]/E6,B6,
{16}B7,E8,,,4hx[16:3]/E4,B3,B2,E2,,,5hx[16:3]/E6,B6,B7,E8,{8},
{1},
{16}1hx[4:1]/E2,B2,B3,E4,{4},{16}5hx[4:1]/E6,B6,B7,E8,{4},

{4}3,2,2/B4/E5,{8}1,1,
{8}3,3,{4}2,34,45,
{4}6,7,7/B5/E5,{8}8,8,
{8}6,6,{4}7p3[4:1],{2},
{4}2,3,34,{8}2,2,
{8}1,1,{4}3,48,56,
{4}7,8,58,5/8<1[4:3],
{1}Cf,

{8}1b/8b,{16}7,7,{4}8h[8:1],1h[8:1]/7h[8:1],2h[8:1]/8h[8:1],
{8},{16}2,2,{4}1h[8:1],2h[8:1]/8h[8:1],1h[8:1]/7h[8:1],
{8},{16}6,6,{4}8h[8:1],1h[8:1]/7h[8:1],{16}2,8,2,8,
{8},{16}3,4,{4}3h[8:1],2h[8:1]/5h[8:1],4h[8:1]/7h[8:1],
{8},{16}6,5,{8}6pp1[2:1],4,{4}4,{8}2,2pp5[2:1],
{8},8,{4}8,7,{8}6,6pp3[8:5],
{8},4,{4}4,2,{8}1,1h[8:5],
{8},2,{4}2,{16}3x,4,5,6,7x/8x,1,2,3,

{4}4x/E1,4,4/E2,4,
{4}4/E3,4,4/C,4,
{4}7,7,7/E5,7,
{4}7/E6,7,7/C,7,
{8}3,3,4,4,1,1,8,8,
{8}5,5,6,6,2,2,4,4,
{16}1,2,3,4,5,6,7,8,
{16}1/E5,E4,E3,E2,E1,E8,E7,E6,
{1}E5/Cf,

{8}18,{16}2,4,{8}3,{16}7,5,{2}6-2[8:1]*-1[8:1],
{8}38,{16}2,1,3,8,4,7,{2}5b>2[8:1]/6bp1[8:1],
{8}78,{16}6,5,{8}7,{16}2,1,{2}3-7[8:1]*-5[8:1],
{8}48,{16}7,5,6,4,5,3,{8}4,12,{4}38,
{16}2,1,,3,{8}4>1[8:1],{16}6,6,{4}4,{8}7x<4[8:1]/8x,{16}1,1,
{4}7,{8}2x<7[8:1]/3x,{16}4,4,{4}2,5x/6x,
{8}78,{16}6,5,{8}7,{16}3,4,{8}2,{16}7,1,{4}2-5[8:1]/6-1[8:1],
{4}2b/6b,3b/7b,{2},

{8}12,78,{4}5<8[8:1]/6,3/5v2[8:1],5-8[8:1]/7,
{4}3/5-3[8:1],5-7[8:1]/7,4/5-2[8:1],5v8[8:1]/6bh[8:1],
{4}3/5>2[8:1],5/7-4[8:1],1-5[8:1]/7,1/8-4[8:1],
{4}18,26,{16}48,3,2,1,{4}5/8>3[8:1],
{4}6/8v5[8:1],2/8-3[8:1],6/8-6[8:1],1/8-2[8:1],
{4}7/8v5[8:1]*v3[8:1],8,17,{8}2-6[8:1],13,
{4}2,4/8<5[8:1],2/8>3[8:1],6/8w4[8:1],
{2}8b,B2/B6/E2/E3/E6/E7/Ch[4:1],

{16}1,8,1,8,{4}2b-4[8:1]/7b,2/8-2[8:1],5-1[8:1]/8,
{4}5/7p3[8:1],7/8q4[8:1],58,{8}67,18,
{4}3/4-6[8:1],2-8[8:1]/4,2/7-3[8:1],1-6[8:1]*-4[8:1]/7,
{4}1,37,{8}12,3,78,6,
{4}1v6[8:1]/8,1/7-4[8:1],3-8[8:1]/7,3/6-2[8:1],
{4}1>4[8:1]/6,1q6[8:1]/8,1v7[8:1]/3,17,
{2}8x<2[2:1],{4},1-5[8:1],
{4}1-7[8:1]*-3[8:1],1,{8}4b/6b,2bh[8:1]/8bh[8:1],{4},

{1}3x/7x,
{16}5hx[4:1]/E6,B6,B7,E8,{4},{16}1hx[4:1]/E2,B2,B3,E4,{4},
{1},
{16}6hx[4:1]/E6,B5,B4,E4,{4},{8},{16}2hx[4:1]/E2,B1,B8,E8,{8},
{2},{4},{8},{16}5hx[16:3]/E6,B6,
{16}B7,E8,,,4hx[16:3]/E4,B3,B2,E2,,,5hx[16:3]/E6,B6,B7,E8,{8},
{1},
{16}6hx[4:1]/E6,B5,B4,E4,{4},{16}2hx[4:1]/E2,B1,B8,E8,{4},

{4}6,6,6/E5,6/E8,
{4}6/E1,6/E2,6/E4,6/E5,
{4}3,3,3/E5,3/E4,
{4}3/E2,3/E1,3/E7,3/E6,
{4}7/Ch[4:7],8,1,2,
{4}1,8,7,6,
{4}5<8[8:1],B6/B7,4>1[8:1],B2/B3,
{4}5<4[2:1],B1/B8/Cf,{2},

{16}3h[16:3],,,1,{8}2,18,7,7,{4}68,
{16}6h[16:3],,,8,{8}7,18,2,2,{4}13,
{16}2h[16:3],,,4,{8}3,45,6,6,{4}57,
{16}7h[16:3],,,5,{8}6,45,3,3,{4}24,
{8}1h[16:1],1h[16:1],{4}28,{8}7h[16:1],7h[16:1],{4}68,
{8}4h[16:1],4h[16:1],{4}35,{8}1h[16:1]/2h[16:1],1h[16:1]/2h[16:1],{4}38,
{1}8z4[4:1]*-5[4:1],
{4}1-6[8:1]*-4[8:1],{16}1x,B3/B7/Cf,{8},{2},

{8}45,{16}6,5,{8}7x-4[8:1],3x-8[8:1],7,3,5,1,
{8}26,{16}7,7,{8}1x-5[8:1],8,7b-4[8:1],8,1b,8,
{8}26,{16}7,8,{8}6-3[8:1],1-5[8:1],6,1,6bx,7,
{8}48,{16}7,7,{8}5pp3[4:1],3,2,1,{4}1b,
{8}25,{16}3,4,{8}2x-6[8:1],5x-8[8:1],2,5,1,2,
{8}37,{16}2,2,{8}8x-4[8:1],1,2b-5[8:1],1,8b,1,
{8}48,{16}7,5,{8}6-2[8:1],4>1[8:1],6,4,{4}8bx-6[8:1]*-5[8:1],
{4}8-3[8:1]*-2[8:1],8w4[8:1],8,2b/6b,

{16}7,1,8,1,{4}7,{8}2/6x,E3/E6f,3x/7,E4f/E7,
{4}8v5[8:1]/2v5[8:1],8<6[8:1]/2p6[8:1],8q4[8:1]/2>4[8:1],28,
{8}17,{16}2,4,{8}3,{16}6,5,{8}7h[8:1],1h[8:1],{16}8,2,7,1,
{8}6-1[8:1],{16}8,8,{8}6,2h[8:1],1x,34,56,78,
{8}1x-7[8:1]/2x,{16}3,3,{8}1-6[8:1],4,1-5[8:1],3,1,2,
{8}7x/8x-2[8:1],{16}6,6,{8}8-3[8:1],5,8-4[8:1],6,8,7,
{8}3b/8,{16}2,1,3,8,{8}4,1b/6,{16}7,8,6,1,{8}5,
{8}3b/4,{16}2,1,{8}2pp8[4:1],8,{2}8b<1b[4:1],

{1}5bx,
{16}5hx[4:1]/E6,B6,B7,E8,{4},{16}1hx[4:1]/E2,B2,B3,E4,{4},
{1},
{16}8hx[4:1]/E8,B7,B6,E6,{4},{8},{16}4hx[4:1]/E4,B3,B2,E2,{8},
{2},{4},{8},{16}5hx[16:3]/E6,B6,
{16}B7,E8,,,4hx[16:3]/E4,B3,B2,E2,,,5hx[16:3]/E6,B6,B7,E8,{8},
{1},
{16}1hx[4:1]/E2,B2,B3,E4,{4},{16}5hx[4:1]/E6,B6,B7,E8,{4},

{4}1x,{8}3,4,,6,5,4,
{4}3,{8}6,4,{4},{16}6,5,{8}6,
{4}3h[4:1],{8}4,4,,3,4,5,
{4}6,{8}3,5,{4},{16}3,4,{8}3,
{4}6h[4:1],{8}5,5,,6,5,4,
{4}3,{8}6,4,{4},{16}6,5,{8}6,
{4}3h[4:1],{8}4,4,,5,{4}5,
{4}46,{8}7,7,,6,{16}E6,E5,{8}E4,
E

Re:MASTER


名前:
コメント:

タグ:

+ タグ編集
  • タグ:
最終更新:2026年03月01日 14:49