BASIC
ADVANCED
EXPERT
(180)
{8}E6,,,E5,,,E4,,,,,2h[8:3],,,,,E4,,,E5,,,E6,,,,,7h[8:3],,,5,,
6h[4:1]/4h[4:1],,,5h[4:1]/3h[4:1],,,2h[1:1],,4,,4,,4,,4,,
5h[4:1]/3h[4:1],,,6h[4:1]/4h[4:1],,,7h[1:1],,5,,5,,5,,5,,
7h[4:1]/8h[4:1],,,8h[4:1]/1h[4:1],,,1^6[4:1]/2p5[4:1],,,,,,75,,42,,
2h[4:1]/1h[4:1],,,1h[4:1]/8h[4:1],,,8^3[4:1]/7q4[4:1],,,,,,24,,57,,
4,4,6,6,3,3,5,5,2-5[4:1],,,,6-1[4:1],,,,
{4}2,43,6h[4:1]/5h[4:1],,68,43,13,6b/5b,
7^4[4:1]/3^8[4:1],,,5x/1x,6^1[4:1]/2^5[4:1],,,8x/4x,
7h[4:1],5h[4:1],4h[4:1],2,E5,E3,E1,E7,
7,7,75,75,3,3,1h[4:1]/3h[4:1],,2,2,42,42,6,6,68,68,
1,42,8,75,1,43,8,65,{8}2,2,4,3,7,7,5,6h[4:1],,8h[4:1],,1h[4:1],,3,3,,
{4}12,75,78,42,12,1q6[4:1]/2^5[4:1],,,
{8}7,7,5,5,6,,78,78,,12,12,,43,,52,,
{4}43,1,65,7h[4:1],1^4[4:1],,8^5[4:1],,
{8}2,2,4,4,3,3,7,7h[4:1],,5h[4:1],,4h[4:1],,2x,2x,,
1h[8:3]/2h[8:3],,,,12,,6h[4:1]/5h[4:1],,,65,7-5[4:1]/4^1[4:1],,,,,,
42,,54,,75,,7h[4:1]/8h[4:1],,,7-3[4:1]/8-4[4:1],,,,,,,
{4}42,3,75,6,14,3,85,6,42,1,75,8x<1[1:1],{1},
Cf,,{8}E6,,,E5,,,E4,,,,3,,4,,5,,
6,,65,,3,,34,,7,,65,,2,,43,,
6,6,4,4,5,5,3,3,4<8[2:1],,,,,,,,
7b-4[8:1]/8b-4[8:1],,,,1b-5[8:1]/2b-5[8:1],,,,7h[4:1],,5h[4:1],,4,,43,,
1b-5[8:1]/2b-5[8:1],,,,7b-4[8:1]/8b-4[8:1],,,,2h[4:1],,4h[4:1],,5,,65,,
7-4[8:1]/8-4[8:1],,,,2,2,4,,1-5[8:1]/2-5[8:1],,,,7,7,5,,
{2}7-4[8:1]/8-4[8:1],1-5[8:1]/2-5[8:1],7b/8b,,
7h[1:1],B5,2h[1:1],B4,7h[1:1],E5,{4}5x,5x/4x,4x/2x,8b/1b,
{8}2,2,4,,7,7,5,,{16}4,5,4,5,4,5,4,5,4x,,,,6x/3x,,,,
{8}7hbx[8:5]/2hbx[8:5],,,,,,,61,,83,,61,,83,8b/3b,,
2-4[8:1],,8-6[8:1],,1-5[8:1],,8,,7,7,5,5,6,,78,,
7-4[8:1]/8,,,,1/2-5[8:1],,,,7-4[8:1]/8,,,,2,,53,,
7-5[8:1],,1-3[8:1],,8-4[8:1],,1,,2,2,4,4,3,,21,,
2-5[8:1]/1,,,,8/7-4[8:1],,,,12,12,,78,,65,65,,
7-5[8:1],,1-3[8:1],,4-8[8:1],,1,,2,2,8,8,1,,21,,
1-6[8:1]/2-5[8:1],,,,7-4[8:1]/8-3[8:1],,,,1-6[8:1]/2-5[8:1],,,,78,,78,,
{16}6bx/8bx,,,7bx/1bx,,,8bx/2bx,,,1bxh[16:3]/3bxh[16:3],,,,,,,
3bx/1bx,,,2bx/8bx,,,1bx/7bx,,,8bxh[16:3]/6bxh[16:3],,,,,,,
{8}2,2,7,7,{16}1,2,3,4,5,6,7,8,{4}1,,,8b/1b,
{16}2h[16:3],,,3h[16:3],,,4,,7h[16:3],,,6h[16:3],,,5,,
4h[16:3],,,3h[16:3],,,2,,5h[16:3],,,6h[16:3],,,7,,
1h[16:3],,,2h[16:3],,,3,,8h[16:3],,,7h[16:3],,,6,,
3h[16:3],,,2h[16:3],,,1,,6h[16:3],,,7h[16:3],,,8,,
{8}8b,,,,7h[4:1]/5h[4:1],,,,42,,42,,1-5[8:1]/2-5[8:1],,,,
6,6,5,7,3,3,4,2,7-3[8:1],,1-5[8:1],,8-4[8:1],,3b,,
E
MASTER
(180)
{8}6,,,5,,,{4}4,
{4},{8},{16}E4,E3,{4}E2,B1/B8,
{8}3,,,4,,,{4}5,
{4},{8},{16}E6,E7,{4}E8,B1/B8,
{8}4,4,{4}35,{8}3,3,{4}24,
{8}5,5,{4}46,{8}6,6,{4}57,
{8}6,,,5,,,4,3<6[4:1],
{8},6<1[4:1],,1>4[4:1],,6,7,8,
{8}1hx[4:1]/5hx[4:1],,,4x/8x,,3-7[8:1],{4}7x<5-1>3[2:1],
{2},{8}6,6,{4}7,
{8}4hx[4:1]/8hx[4:1],,,3x/7x,,6-2[8:1],{4}2x>4-8<6[2:1],
{2},{8}3,3,{4}2,
{8}1x/5x,6,7,8,1x/4x,3,2,1,
{16}7x,8,7,8,7,8,7,8,{12}6x,4,4,5x,3,3,
{2}2xpp6[8:3]/7hx[8:5],{4},{8},58,
{8}6x,14,3x,58,6x,14,{4}3b/6b,
{16}7x,6,5,4,3,2,1,8,{4}7-3[8:1],1b/7b,
{16}2x,3,4,5,6,7,8,1,{4}2-6[8:1],2b/8b,
{8}57,57,46,46,{16}3,5,3,6,4,6,3,5,
{4}2b,{8}B7,B8,B1,B2,,35,
{8}6hx[8:1],4,6h[8:1],4,6h[8:1],5,6h[8:1],5,
{8}6h[8:1],7,6h[8:1],8,6v8[8:1],1,{4},
{8}3hx[8:1],5,3h[8:1],5,3h[8:1],4,3h[8:1],4,
{8}3h[8:1],2,3h[8:1],1,3h[8:1],8,47,47,
{8}7hx[8:1],5,7h[8:1],5,7h[8:1],6,7h[8:1],6,
{8}7h[8:1],8,7h[8:1],1,7h[8:1],2,7h[8:1],3,
{4}4x/6x,{8}78,{16}1,8,1,8,{8}1-4[8:1],,1-6[8:1]/8,
{8},1-5[8:1]/2,,18,,6,{4}46,
{4}3x>1[8:1]/5x,4,{8}5<7[8:1],5,{4}4,
{4}3>1[8:1],{8}4,4p5[4:1],,48,{4}1,
{4}3x/6x<8[8:1],5,{8}4>2[8:1],4,{4}5,
{4}6<8[8:1],{8}5,5>2[8:1],,15,8,8,
{8}7-5[8:1],7,1-3[8:1],1,4-6[8:1],4,2-8[8:1],2,
{4}7,{16}57,,,46,,,{8}35,{4}3b/5b,
{8}12,1,18,8,{4}78,{8}56,4-7[8:1]/5,
{8},3/4-1[8:1],,4V61[4:1]/5,,34,,{16}2,3,
{2}8xqq5[8:3]/4xqq1[8:3],{4},2hx[4:1]/6hx[4:1],
{8},3x/7x,{4}8v5[8:1]/4v1[8:1],4x/8x,{8}3,3,
{4}4x-2[8:1]/7x-1[8:1],4x/7x,{16}8 ,7,6,5,{4}4hx[4:1]/8hx[4:1],
{8},{16}1x/5x,,,4x/6x,,,{8}5-8[8:1]*-2[8:1],5,{4}5b,
{4}1xpp5[8:3],6,{8}6,7,8,37,
{2}6s2[4:1]/2s6[4:1],{4},3b/5b,
{4}7<4[8:1]/8>3[8:1],78,{16}2x/4x,,,1x/8x,,,{8}5x/7x,
{1}5x/7xw3[2:1],
{8}34,,,45,,,{4}5/6h[8:7],
{2},{8},7,{4}7,
{8}56,,,45,,,{4}3h[8:7]/4,
{2},{8},2,{4}2,
{4}1x/8x,{8}16,{16}7,8,7,8,{8}7,{4}16,
{8}38,{16}2,1,2,1,{8}2,38,12,{4}38,
{4}4x/5x,{8}38,{16}2,1,2,1,{8}2,{4}38,
{8}16,{16}7,8,7,8,{8}7,{4}16,{16}4,3,2,1,
{2}5hx[8:3]/8hx[8:3],3hx[8:3]/6hx[8:3],
{2}1hx[2:1]/4hx[2:1],{4},{16}8,7,6,5,
{2}2hx[8:3]/4hx[8:3],5hx[8:3]/7hx[8:3],
{8}4x/6x,3,2x/5x,6,4x/7x,{16}8,5,{4}8,
{4}4x>1[8:1]/7x,5,{8}6<1[8:1],6,{4}5,
{4}3x>8[8:1],{8}5,4<7[8:1],,48,{4}1,
{8}2-6[8:1],6-2[8:1],2,5,,14,25,36,
{1}4xpp7b[2:1]*qq1b[2:1]/7x,
{4}3q7[2:1],{8},E6,,E8,{4},
{4}8q4[2:1],{8},E5,,E3,{4},
{4}1p5[2:1],{8},E5,,E7,{4},
{4}4x/6x-2[8:1],3-7[8:1]/6,38,{16}6,5,{8}6,
{8}78,1,23,4,56,7,{4}18,
{16}2x,1,2,1,2,1,2,1,{12}3x,5,5,4x,6,6,
{2}2hx[8:5]/7xqq3[8:3],{4},{8},14,
{8}3x,58,6x,14,3x,58,{16}4,3,2,1,
{4}7x/8x-4[8:1],6pp1[8:3]/8,3h[4:1]/6,{8},{16}4,3,
{4}2/7-5[8:1],{8}1,1,{4}4-7[8:1]/8-3[8:1],48,
{4}2-6[8:1],{8}26,7qq4[8:3],,78,,{16}1,2,
{4}3>1[8:1],35,{8}78,{16}78,16,{4}25,
{4}1x-5[8:1]/2x,1/3qq8[8:3],3/6h[4:1],{8},{16}5,6,
{4}2>4[8:1]/7,{8}8,8,{4}1-6[8:1]/5-2[8:1],15,
{4}7-3[8:1],{8}17,2-6[8:1],,8,8,7-3[8:1]/5-1[8:1],
{8},5x/7x,,24,24,{16}24,15,{4}68,
{8}17,17,{4}1x-5[8:1]/7x,8-4[8:1],7-3[8:1],
{4}6-2[8:1],5-1[8:1],4<7[8:1],{8}3,3,
{4}2x/8x-4[8:1],1-5[8:1],2-6[8:1],3-7[8:1],
{4}4-8[8:1],5,{8}37,{16}37,26,{4}15,
{16}4bx/7bx,,,2b/5b,,,6b/8b,,,1b/3b,,,{24}8,7,6,2,3,4,
{16}5bx/7bx,,,2b/4b,,,6b/8b,,,1b/3b,,,{8}27,27,
{8}1-5[8:1],1,7-3[8:1],7,{16}3,2,1,8,7,6,5,4,
{8}3x/7x,2/8-5[8:1]*-3[8:1],,8-4-6b[4:1]*-4-2b[4:1],,8,{4},
{8}1x/7x,{16}6,5,,3,{8}4,2qq8[8:1],6qq4[8:1],2,6,
{8}1,{16}3,4,,6,{8}5,7pp1[8:1],3pp5[8:1],7,3,
{8}8,{16}6,5,,3,{8}4,2qq8[8:1],6qq4[8:1],2,6,
{16}1,1,,35,,7,{8}7,{16}5,46,37,28,,7,{8}3,
{2}4bh[4:1]/6bq2[8:1],3bp7[8:1]/5bh[4:1],
{8}1x/4x,3,5x/8x,6,{4}4x-8[8:1]/1x-5[8:1],1b/4b,
{8}37,37,26,26,{16}15,4,3,2,1,8,{8}37,
{16}2,4,,36,,7,{8}5,{16}1,4,,26,37,48,15,26,
E
Re:MASTER
最終更新:2026年03月05日 18:23