アットウィキロゴ

零號車輛

アーティスト seatrus

BPM BASIC ADVANCED EXPERT MASTER Re:MASTER
240 6 8 12+ 14+ -

EXPERT MASTER Re:MASTER
譜面制作者 サファ太 はっぴー -

BASIC


ADVANCED


EXPERT

(240){1},
5b/4b>5[4:11],,,,
4/5<4[4:11]b,,,,
{2}4h[1:2],,E5,E6,7h[1:2],,E5,E4,
3h[1:2],,E5,E7,8h[2:3],,2h[2:1],,

{8}1x,1x,1x,1x,,,2x/8x,2x/8x,,7x/3x,
,6x/4x,6hx[8:3]/4hx[8:3],,,,
,54,54,,3,3,4,2h[4:1],
,1,1,,83,,83,,
7bx,7,7h[4:1],,5bx,5,5h[4:1],,4bx,4,4h[4:1],,2bx,2,2h[4:1],,
{4}1bx,1bx/2bx,3bx/4bx,5bx/6bx,4hbx[2:1]/7hbx[2:1],,,,

{8}46,,35,,2,2,4,,12,,78,,7,7,5,,
35,,6h[4:1],,8h[4:1],,1h[4:1],,3h[4:1],,4,,12,,78,,
{4}6/1^4[8:3],,E6,E7,E8,C,E2f,,2/8-5[4:1],,3,3/4s8[2:1],,,,1x,
{8}28,,28,,7,7,5,,17,,17,,2,2,4,,
46,,3h[4:1],,1h[4:1],,8h[4:1],,6h[4:1],,5,,6,6,5,,
{4}7/4^1[8:1],,E8,E7,E6,C,E4f,,3/5-8[4:1],,2,12,
{8}8x,8x,1x,1x,8x/1x,,7bx/2bx,,

{8}3,3,4,2,6h[4:1],,8,,81,,13,,34,,56,,7,7,5,6,1,,25,,1h[4:1],,3^6[4:1],,,,,,
7,7,5,,68,,81,,2,2,4,,13,,81,,{4}7^2[4:1],,3^6[4:1],,8,7,6b/4b,,
{8}2,2,4,4,3,3,5,5,4,4,6,6,5,,46,,78,,78,,56,,34,,12,,57,,78,,24,,
3,3h[8:1],5,5h[8:1],7,7h[8:1],5,5h[8:1],3,3h[8:1],1,1h[8:1],7,7h[8:1],1,,
82,82,82,,71,71,71,,8,8,4,4,6,6,2b-8[8:1]b,,

{1},,,,
{2}E7,E6,E5,E4,E3,E2,E1,E8,
{1}E7/Ch[1:1],E8/B8,E3/Ch[1:1],E2/B1,8<1>8[4:15],,,,
{4}1,,1,,2,3,4,5,6h[2:1]/4,,4,,5,4,5,6,
7/5h[2:1],,7,,8,7,6,5,4^1[2:1],,,,7^4[2:1],,,,
2,2h[4:1],4,4h[4:1],E4,,B1/B2,,7,7h[4:1],5,5h[4:1],E6,,B7/B8,,
1,1h[4:1],3,3h[4:1],5,5h[4:1],7,7h[4:1],1-5-1[4:5],,,,,,,,

{8}8bx,8bx,8bx,8bx,,,7/1,7/1,,2/6,
,3x/5x,3hx[8:3]/5hx[8:3],,,,
,45,45,,6,6,5,7h[4:1],
,8,8v5[4:1]*v3[4:1],,,,,,
2bx,2,2h[4:1],,4bx,4,4h[4:1],,5bx,5,5h[4:1],,7bx,7,7h[4:1],,
{4}8bx,7bx/8bx,5bx/6bx,4bx/3bx,2bxh[2:1]/5bxh[2:1],,,,
{8}3x,3x,5x,5x,4x,4x,6x,6x,5x,5x,7x,7x,2x,2x,7x,7x,
{16}1x,8x,1x,8x,1x,8x,1x,8x,1x,8x,1x,8x,1x,8x,1x,8x,
{4}1bxh[2:1],,,8/2-5[8:1],

{4}1-6[8:1],,5x,6,78,24,12,7-4[8:1],8-3[8:1],,4,2,13,34,68,65,
{8}7,7,5,5,6-3[8:1],,1,,2,2,4,4,3-6[8:1],,8,,
{16}7hx[16:3],,,5hx[16:3],,,6x,,6x,,,,8x/1x,,,,
2h[16:3],,,4h[16:3],,,3,,3,,,,1b/8b,,,,
{8}7,7,8,8,6,6,5,5,7,,8-4[8:1],,,,13,,2,2,1,1,3,3,4,4,2,,1-5[8:1],,,,6bx/4bx,,
53,,1b,,,7x/3x,6x/4x,,46,,8b,,,2x/6x,3x/5x,,
53,,6,,64,,3,,2h[4:1],,4h[4:1],,6h[4:1],,8<1[1:1],,


{1},
{4}Cf,,,8bx/1bx,
{8}2-4[8:1],,1-5[8:1],,2-6[8:1],,8x,,7,7,5,8,4h[4:1],,1b,,
7-5[8:1],,8-4[8:1],,7-3[8:1],,1x,,2,2,4,1,5h[4:1],,8b,,
{16}2hx[16:3],,,3hx[16:3],,,4x,,{4}4x,2bxv4[2:1]b/6bxv8[2:1]b,,,,2bx/6bx,
{8}78,,78,,53,,53,,2,4,6,4,2h[4:1],,1,,12,,12,,64,,64,,7,5,3,5,7h[4:1],,8,,
{2}1-5[8:1],8-4[8:1],3-8[8:1],7,
{8}61,61,61,,83,83,83,,52,52,52,,74,74,74,,
6bxh[4:1]/8bxh[4:1],,,,1bxh[4:1]/3bxh[4:1],,,,4/8-6-4-2[8:5],,,,,,,B8f/Ch[8:25],
{2},,,,,,,
{16}1x,8x,1x,8x,1x,8x,1x,8x,1x,8x,1x,8x,1x,8x,1x,8x,
1x,2x,3x,4x,5x,6x,7x,8x,1x,2x,3x,4x,5x,6x,7x,8x,1bx/Ch[8:1],
E

MASTER

(240){1}
4h[1:1]/5h[4:3],
{8}E8,3,5,4,6,3,5-3-6[4:3],2h[8:3],,,,,1h[4:1],,,,
E2,6,4,5,3,6,4-6-3[4:3],7h[8:3],,,,,8h[4:1],,,,
E8,3,4,5,7,6,5-3-6[4:3],2h[8:3],,,,,1h[4:1],,,,
E2,6,5,4,2,3,4-6-3[4:3],7h[8:3],,,,,8h[4:1],,,,
E8,3,5,E2,6,4,B7,3h[8:3],5h[4:1],,,,2/6h[4:1],,2,,
E2,6,4,E8,3,5,B2,6h[8:3],4h[4:1],,,,3h[4:1]/7,,7,,
E8,4,6,E2,5,4,B7,3h[8:3],5h[4:1],,,,2/6h[4:1],2,2,2,
E2,5,3,E8,4,5,B2,6,4h[2:1],7,7,,{12}6,4,5,{8}3,,

26,2-4[8:1]/6-8[8:1],26,26,,,48,48,,26,,18,E2/E8,{16},E3/E7,,,E4/E6,,
,,4x/5x,,4xh[8:1]/5xh[8:1],,,,5,4,{8}5,36,36,,17,17,,{12}2,4,3,7,5,6x,
{8}6x,6,46,6,3x,3,35,3,7x,7,57,7,2x,2,24,2,
{16}8x,1,8,1,7,2,7,2,6,3,6,3,5,4,5,4,{4}6h[4:3],,,E5,

8-6[8:1],3/8-4[8:1],38,38,4/8x-6[8:1],4/8-4[8:1],38,38,
1-3[8:1],1-5[8:1]/6,16,16,1x-3[8:1]/5,1-5[8:1]/5,16,16,
{8}7,6,5h[8:1]/7h[8:1],,4,3-8[8:1]/5,,6h[4:1],,1,1-4[8:1],4,5-8[8:1],,3,2,
1-5[8:1],,6h[4:1],,4,46,,7,{12}7,5,6,2,4,3,{8}5,5,{4}4b/6b,
7-5[8:1],4/7-1[8:1],4/7-4[8:1],37,3/6-1[8:1],2/6-4[8:1],2/6-8[8:1],36,
2-4[8:1],2-8[8:1]/5,2-5[8:1]/5,26,3-8[8:1]/6,3-5[8:1]/7,3-1[8:1]/7,3/6p4^3V17-5[2:3],
{1},,
{8}5,5,4,4,6,6,3,3,{16}3,5,3,5,3,5,3,5,3,5,3,5,{8}2b-5[8:1],,

6-8[8:1],6,3,2,1-3[8:1]*-4[8:1],,1-6[8:1]*-7[8:1],,1-5[8:1],,1,{16}6,7,{8}8,5,5-2[8:1],,
1-6[8:1],,3,4,5h[8:1]/7h[8:1],{16},1h[8:1]/8h[8:1],{8},24,5^8[8:1],4,3,2,1^4[8:1],8,7,6,
57,4,35,6,5h[8:1]/7h[8:1],{16},4h[8:1]/5h[8:1],,,3,,24,,1,,57,,8,,24,,6,7,8-4[8:1],1,2,3,
{8}4,,,5,46,46,37,37,{16}8,7,6,5,1,2,3,4,{8}5,5,4b/6b,,
7-3[8:1],7,1,1,2-5[8:1],2,6,{16}6,7,8-4[8:1],,8,,2,,2,,1-4[8:1],,1,,5,,5,6,
{8}7h[8:1],5b,3h[8:1],4b,6h[8:1],8b,2h[8:1],1b,{16}8,,8,7,6,5,4,3,8,7,6,5,4,3,2,1,
{8}8w4[8:1],,,,2-6[8:1],2,8-4[8:1],8,5h[4:1],,7-3[8:1],7,1-5[8:1],1,4h[4:1],,
6,7,58,,3,2,17,,{16}8,7,6,5,1,2,3,4,6-2[8:1],4,6,4,6b,,,,

{1}3bxh[2:15],,,,
,,,{2},6h[2:1],
{8}4h[2:3],,,E8,,,E6,,,,,,8h[2:1],,E6,E2,
3h[2:3],,,E8,,,E6,,,,,,7h[2:1],,E4,,
4h[1:1],,,E8,,,E6,,6h[2:1],,,,2h[2:1],,,,
8h[1:1],E2,E1,E8,E7,E6,E5,E4,3xh[2:1],D8,D7,D6,5xh[2:1],,,,
E2,6,4,5,3,5,4,6h[8:3],4,,5,,48,,38,,
E8,3,5,4,6,4,5,3h[8:3],5,,4,,15,,16,,
E2,6,5,4,3,4,5,6h[8:3],5,,5,,47,7,47,7,
E8,3,4,5,6,5,4,3h[8:3],4,,4,,2h[4:1]/5,,5,,
E2,6,5,E8,3,4,B2,6h[8:3],4,,5,,58,,48,,
E8,3,4,E2,6,5,B7,3h[8:3],5,,4,,14,,15,,
E2,4,3,E8,4,5,B2,6h[8:3],4,,5,,57,7,57,,
{16}5,6,5,6,5,6,5,6,4,7,3,8,2,1,2,1,3,8,4,7,5,6,5,6,{8}4h[4:1],,,,

26,2-4[8:1]/6-8[8:1],26,2b/6b,,,48,4b/8b,,26,,18,E2f/E8,{16},E3/E7f,,,E4f/E6,,
,,4x/5x,,4bxh[8:1]/5bxh[8:1],,,,4,5,{8}4,36,3b/6b,,28,2b/8b,,{12}7,5,6,2,4,3x,
{8}3x,3,35,3,6x,6,46,6,2x,2,24,2,7x,7,57,7,
{16}1x,2,3,4,8,7,6,5,2x,3,4,5,6,7,8,1,{1}26,
{16}6,4,6,4,6,4,6,4,6,4,6,4,6,4,6,4,7,3,7,3,7,3,7,3,8,2,8,2,8,2,8,2,
1,1,1,1,1,1,1,1,1,1,1,1,1,1,1,1,{4}1bh[2:1],,,3v8[8:1]/7-4[8:1],

3b/7b,1-3[8:1]/5-7[8:1],1bq5[8:1]/5b,16,{16}7,,7,,5,4,3,2,{8}1-4[8:1],4,1-5[8:1],5,
1,6,47,3,2/8-4[8:1],7,3-7[8:1],2,5-8[8:1],,1-4[8:1],,6-4[8:1],,3h[4:1],,
5,{16}6,4,6,4,6,4,7,,7,,5,,6,,57,,,1,8,,24,,24,,,8,1,,57,,
57,,,4,5,,24,,3,,3,,57,,6,,24,,,5,{8}4,57,6,6,24,3,
{4}5V71v6[2:1],4,3,3,4V28v3[2:1],5,6,6,
{16}6,,6,5,6,5,7,,3,4,3,4,{8}2,1,8,7^2[8:1],6,5,4h[8:1],,35,,
2-5[8:1],,1h[4:1]/2,,,7,56,,7-4[8:1],,7/8h[4:1],,,2,34,,
3bx,{16}6,7,8,1,2,,6bx,,3,2,1,8,7,,{4}3bxV17[4:1],7V13[4:1],4,5w1b[8:1],

{4}E5/E6/B5f,,,,{16}2,8,2,8,2,,6,5,,3,{8}4,2-6[8:1]/5,16,
2b,,5b/8b,,4h[16:3],{16},2h[16:3],,,1,,{4}1^4[8:1]*q5[8:1],1b,8^5[8:1]*p4[8:1],8b,
{16}1,,2,4,2-8[8:1],4,2,4,2-5[8:1],,,,26,,,,7,,7,5,6,,6,,2,,2,4,3,,3,,
8h[16:3],,,6h[16:3],,,5,,5-8[8:1],,4,,3b,,,,1h[16:3],,,3h[16:3],,,4,,4-1[8:1],,5,,{4}6b,
8b-4[8:1],3b-7[8:1]/8b,3b/5b-1[8:1],5b/8b-3[8:1],6b-2[8:1]/8b,4b^7[8:1]/6b,1b-5[8:1]/4b,1b,
{16}46,,3b,2,1,8,7,6,3b,2,1,8,7,6,{8}3b,3b,,14,14,,58,58,,
3-8[8:1],,3/4h[4:1],,,5,5,,6-1[8:1],,5h[4:1]/6,,,4,{4}4,
3h[8:1]/5h[8:1],2h[8:1]/4h[8:1],1h[8:1]/3h[8:1],2h[8:1]/8h[8:1],{16}7b,6,5,4,8b,7,6,5,1b,8,7,6,2b,1,8,7,
{2}3bh[2:1],E1f,{32}2,3,4,5,6,7,8,1,2,3,4,5,6,7,8,1,2,3,4,5,6,7,8,1,2h[32:67],,,,5h[8:29],,,,
{2},,,{8},,,{32}E3,B3,,,
{2},,,{16}4,5,4,5,4,5,4,5,
4,5,4,5,4,5,4,5,3,5,3,5,2,5,2,5,1,5,1,5,1,5,1,5,{32}A2,B2,C,B6,{1}A6,E

Re:MASTER


名前:
コメント:

タグ:

+ タグ編集
  • タグ:
最終更新:2026年02月01日 14:21