| アーティスト |
DiGiTAL WiNG feat. 花たん |
BASIC
ADVANCED
EXPERT
MASTER
(150){4}4b/6h[2:1],4,4,{8}3/5-1[2:1],3,3,,2,,2,,3,3,2h[2:1]/4,,4,,4,,3-8[2:1]/5,5,5,,6,,6,,7,7,2/8v3[4:1],,3<6[4:1],,2,,1,1,7/1v6[4:1],,6>3[4:1],,7,,8,8,1/2,,3/4,,5/6-3[8:1],,4q8[8:1]*z8[8:1],,{1}4b,
{8}6b/2h[4:3],,,,,,1,7/8,1b/6h[4:3],,,,,,5,3/4,5b/2h[2:1],,,,{4},4-1[8:1]/7-5[8:1],4/7,2-4[8:1]/4-1[8:1],2/4,5b/8b,7h[4:3]/4bV68[4:1],,,2,{16}6,5,,3,4,,8,1h[16:5],{4},5,2h[4:1]/4b<7[8:1],,{8}8,7,1<6[8:1]/6,2,3-8[8:1],,5-1[8:1],,2,,3/8,2/7,1/6,{24}3,4,3,4,,,6,5,6,{4}5-1[8:1],7b,
{16}2h[16:3]/8,,,4,3,,4/6,,7,5,,5,7,,4/8,,3,3,,1,1,,7,7,,5,5,,4/6,,4/6,,3/5,,2/4,,2/4,,2,4,3,,2/5,,6,,4/7,,8,8,,2,2,,4,4,,6,6,,4b/8b,,,,
7h[16:3],,,5,6,,5/3,,2,4,,4,2,,5/1,,8h[16:3],,,6h[16:3],,,4h[16:3],,,3,,,2/4,,2/4,,3/5,,4/6,,4/6,,7,5,6-1[8:1],,4,,3,,3,,{4}3b/8b,1b/6b,4b-1[8:1]/5b-8[8:1],4b/5b,{16}2b/7b,,,,3,4<7[16:3],,2,,2,,1,,1,,8,2b,,4/7,,6,5>2[16:3],,7,,7,,8,,8,,1,7b,,2/5,,3,4v7[16:3],,2,,2,,1,,1,,8,2b,,4/7,,6,5,,4/7,,3/6,,2/5,,1/4,,
2/5,2b/5b,,,,7,8>3[16:3],,6,,6,,5,,5,,4,6b,,3/8,,2,1<6[16:3],,3,,3,,4,,4,,5,3b,,1/6,,8,7v4[16:3],,1,,1,,2,,3,,3,5b,,4/6,,7,5,,4/6,,3/5,,2/4,,2/4,,1,{1}1>5[8:3]*z5[8:3],
{8}6h[4:1],,8,8,,1h[4:1]/7,,2,,3h[4:1]/8,,1,1<6[4:1],,4qq4[8:3],,,,5,5pp4[2:1],,3,,2,,1h[4:1],,4h[4:1],,8h[4:1],,4,1b/5b,,2,2q6[4:1],,
6q2[4:1],,7,,8h[4:1],,2,2h[4:1],,1-4[4:1],,3,,2,2q7[4:1],,4,,,1b/5h[2:1],,,,{16}2,4,2,4,3,5,3,5,{4}4-2[8:1],4/6-4[8:1],1-5[8:1]/6,1/7-1[8:1],2-4[8:1]/7,2/4,5-1[8:1]/7-5[8:1],5/7,2-8[8:1]/4,2/7-3[8:1],4-8[8:1]/7,4/5,1b/7b,3b/4b,{8}1b/6b,7b/8b,{4}7b-5[8:1]/8b,1-7[8:1]/7,1/4-8[8:1],2-4[8:1]/4,2/7-3[8:1],7/8,2-4[8:1]/8-4[8:1],2-6[8:1]/8-6[8:1],2/8-6[8:1],4-8[8:1]/8,4/6>4[8:1],1w5[8:1]/6,1,3h[4:1]/7b,5h[4:1],6-2[8:1]*-1[8:1],6b,
{8}8bV24[8:3]/3h[4:3],,,,,,,2/5,2bV86[8:3]/5h[4:3],,,,,,,5/7,5b/7bpp2[8:3],,,,3pp6[8:3],,,8,8b,,5b/7b,,3b/4bp8[8:1]*q8[8:1],,4b,,
1bV74[4:1]/6bV84[4:1],,,,,,2/5,1/6,{16}7,8,,4,5,,2,1h[16:5],{4},8-4[8:1],7b,6,{8}5/7,5/7,4/6,3/5,2h[8:1]/4h[8:1],,7h[8:1]/5h[8:1],,3/4v1[8:1]*v7[8:1],,4b,,
{8}2-8[8:1]/6,3/7,2/6,4,3/7-5[8:1],4/8,3-5[8:1]/7-1[8:1],1,3v8[8:1]/7v4[8:1],,3V57[16:3]/7V13[16:3],,3b/7b,,,,7-5[8:1],8-4[8:1],7,8,1-5[8:1],2-4[8:1],1<6[8:1],2,1-4[8:1]*-3[8:1],,1w5[8:1],,1,,2b/8b,2/8,3/7-1[8:1],2/6,3/7,4,2-4[8:1]/6,1/5,2/7-5[8:1],8-4[8:1],7-3[8:1],8-2[8:1],7<1[4:1],8,7b,,,,5<8[8:1]/7,6,3/5>2[8:1],4,1-5[8:1]/5,8,1/7-3[8:1],6,2b-6[8:1],,2b/4bp8[8:1]*q8[8:1],,4b,,1/7,1/7,{24}2/6,,,2,3,4,5,,,7,6,5,{4}4w8[8:1],4b,
{16}2>5[8:1]/6,,,1,2,,6,,7-4[8:1],8,,8,7,,1,,2,4,,4,5,,5,7,,7,8,,1/6,,2/5,,3-8[8:1]/4,,2,,4,,7,7,7<4[8:1],,8v3[8:1],,7,,8,,1,1,,4,3/5,,8,8,,5,4/6,,2b/8b,,,,3b/7b<4[8:1],,,8,7,,3,,2-5[8:1],1,,1,2,,8,,7,5,,5,4,,4,2,,2,1,,3/8,,4/7,,5/6-1[8:1],,7,,4,,2,2,2,,1/8,,2/7-2[8:1],,6,,{4}5b-1[8:1],3b<6[8:1],8bw4[8:1],8b,{16}2b/6b,,,,3,4,,4,2,4,,4,3,4,,4,3b,5,4h[8:1],,6,5,,5,7,5,,5,6,5,,5,6b,4,5h[8:1],,3,4,,4,2,4,,4,3,4,,4,3b,5,4,6,5,7,6,8,,1/7,,4,,3/5,,2/6,
2b/6b,,,,7,8,,8,6,8,,8,7,8,,8,7b,1,8,2,1,3,,3,4,3,,3,1,3,,3,1b,2,8,1,7,8,,8,6,8,,8,7,8,,8,7b,1,6,2,5,3/4,,2/5,2/5,,4/7,,1/8-5[8:1]*V26[16:3],,3/6,,8b,E
Re:MASTER
- MASTER譜面を追加しました。修正等ありましたらよろしくお願いします。 -- Sugar (2026-06-01 22:23:20)
最終更新:2026年06月01日 22:23