アットウィキロゴ

tape/stop/night

アーティスト Sugar & Co.

BPM BASIC ADVANCED EXPERT MASTER Re:MASTER
115 2 6 10 12+ -

EXPERT MASTER Re:MASTER
譜面制作者 みそかつ侍 はっぴー -

BASIC


ADVANCED


EXPERT


MASTER

(115)
{4}4h[4:3]/5h[4:3],,,,
{4}3/4>2[8:1],,6/5<7[8:1],,3/4>2[8:1],,4/5,4/5,
{4}6/5<7[8:1],,3/4>2[8:1],,6/5<7[8:1],,4/5,4/5,
{4}3/4>2[8:1],,6/5<7[8:1],,3/4>2[8:1],,4/5,4/5,
{4}6/5<7[8:1],,3/5,2>5[4:1]/6<1[4:1],,,,
{4}2>5[8:1]/5<8[8:1],2/5,7<4[8:1]/4>1[8:1],7/4,
{4}2/5-8[8:1],4/5-2[8:1],6/5-8[8:1],4/5,
{4}7<4[8:1]/4>1[8:1],7/4,2>5[8:1]/5<8[8:1],
{4}2/5-1[8:1],5/4-8[8:1],4/5qq4[4:1]b*pp6[4:1]b,,,
{4}7<4[8:1]/4>1[8:1],7/4,2>5[8:1]/5<8[8:1],2/5,
{4}7/4-1[8:1],5/4-7[8:1],3/4-1[8:1],4/5,
{4}2>5[8:1]/5<8[8:1],2/5,7<4[8:1]/4>1[8:1],4/7,
{4}2-4[8:1]/5-1[8:1],2/5,4-8[8:1]/7-5[8:1],4/7,
{4}5/2>8q1[4:5],B1/Cf/B8,,,,,,,
{4}4/7<1p8[4:5],,,,,,,,
{4}4/6-3>7[4:2],,,,5/3-6<2[4:2],,,,
{4}4/6-1q5[4:2],,,,5/3-8p4[4:2],,,,
{4}3/4-2[8:1],4/6,5/4-6[8:1],2/4,
{4}3/4-2[8:1],4/6,3/5<7[8:1],4/5,
{4}6/5-7[8:1],3/5,4/5-3[8:1],5/7,
{4}6/5-7[8:1],3/5,6/4>2[8:1],4/5,
{4}3/4-2[8:1],4/6,5/4-6[8:1],2/4,
{4}3/4-2[8:1],4/6,3/5<7[8:1],4/5,
{4}6/5-7[8:1],3/5,4/5,
{4}5/4-6[8:1],2/4-2[8:1],6/4-7[8:1],2/4-1[8:1],4/7,
{4}7b/1b>4[8:1],1/6<1[8:1],6/3-6[8:1],3/8,
{4}7<5[8:1]/8p4[8:1],7q3[8:1]/8>2[8:1],7<5[8:1]/8p4[8:1],7/8,
{4}1/2>5[8:1],2/7>2[8:1],7/4<7[8:1],1/4-1[8:1],4/5-8[8:1],5/4v3-1[4:1]b*v5-7[4:1]b,,,
{4}2/8<4[8:1],8/3>8[8:1],3/6-3[8:1],1/6,
{4}1q5[8:1]/2>4[8:1],1<7[8:1]/2p6[8:1],1q5[8:1]/2>4[8:1],1/2,
{4}8/7<4[8:1],7/2<7[8:1],2/5>2[8:1],5/8,
{4}2>5[8:1]/6<1[8:1],2/6,4>1[8:1]/8<5[8:1],4/8,2/6,
{4}4h[4:1]/3-5[8:1],,4h[4:1]/3-5[8:1],,4h[4:3]/3V52[4:1],,,,
{4}5h[4:1]/6-4[8:1],,5h[4:1]/6h[4:1],,5h[4:3]/6>1[8:3],,,,
{4}4h[4:1]/3-5[8:1],,4h[4:1]/3-5[8:1],,4h[4:3]/3V52[4:1],,,,
{4}5h[4:1]/6-4[8:1],,5h[4:1]/6h[4:1],,
{4}A5/E5/A4,A6/B6/C/B3/A3,A8/D1f/A1,
{4}2b>4[8:1]/7b<5[8:1],7/2-6[8:1],2/8<5[8:1],4/8>3[8:1],
{4}8/5pp7[8:1],2/5qq3[8:1],5/7<4[8:1],1/7,
{4}5/2>4[8:1],2/8-4[8:1],8/1pp3[8:1],5/1qq7[8:1],
{4}1/4>1[8:1],4/8-2v4[4:1]b*-6v4[4:1]b,,,
{4}2>4[8:1]/7<5[8:1],7/2-6[8:1],2/8<5[8:1],4/8>3[8:1],
{4}8/5pp7[8:1],2/5qq3[8:1],5/7<4[8:1],1/7,
{4}2>5[8:1]/5-8[8:1],2/5,4-1[8:1]/7<4[8:1],4/7,
{4}2v4[8:1]/5v3[8:1],2/5-8[8:1],2v4[8:1]/5v3[8:1],2/5,
{4}2>4[8:1]/7<5[8:1],2b/7b>1[8:1],7/5-8[8:1],5/4-1[8:1],
{4}4/3-5[8:1],8/3-1[8:1],3/7-5[8:1],1/7-1[8:1],
{4}7/4qq2[8:1],8/4pp6[8:1],3/4-8[8:1],5/4w8[8:1],,1-4qq2[4:1]b/7-4pp6[4:1]b,,,
{4}2>4[8:1]/6>4[8:1],6/2<8[8:1],2/4-1[8:1],4/5-8[8:1],
{4}5/6-4[8:1],1/6-8[8:1],6/2-4[8:1],8/2-8[8:1],
{4}2/5v8[8:1],5/4>1[8:1],4/8<5[8:1],
{4}8/1v4[8:1],7/1<6[8:1],3/1>4[8:1],
{4}1/8<4[8:1],2/8>3[8:1],8/6p3[4:3],
E

Re:MASTER


名前:
コメント:

タグ:

+ タグ編集
  • タグ:
最終更新:2026年01月24日 02:32