アットウィキロゴ

Transcend Lights

アーティスト 曲:小高光太郎/歌:オンゲキシューターズ

BPM BASIC ADVANCED EXPERT MASTER Re:MASTER
70 4 7 11 13 -

EXPERT MASTER Re:MASTER
譜面制作者 翠楼屋 はっぴー -

BASIC


ADVANCED


EXPERT


MASTER

(70)

{4}1>6[4:1],7,8<3[4:1],2,1>6[4:1],6,7h[4:1],5,8<3[4:1],2,1>6[4:1],7, 8<3[4:1],3,{12}2,2,8,8<5[12:1],,5,
4>1[12:1],,6,6<1[12:1],,2,3-7[12:1],4,4,5-8[12:1],,1,2-8[12:1],3,4,5-3[12:1],6,7,8-6[12:1],2,2,{4}1w5[12:1],{1},

{24}3<6[12:1],,2,2,,6,{12}6,8,8,{24}3>1[12:1],,,4,4,,{12}5,,5,4/6>3[12:1],{24}7,7,,2,{12}2-6[12:1],1,1,2>5[12:1]*<7[12:1],,8,,,,6>3[12:1],{24}7,7,,2,{12}2,1,1,6<8[12:1],,4,5,5,4,3<6[12:1],2,2,7-3[12:1],8,8,3,{24},2,{12}2h[12:1],{4}B4/B5/Cf,
{24}2/8,2/8,,3/7,,4/6,{12}4/6h[12:2],5,8,{24}1/7/,1/7,,2/6,,3/5,{12}3h[12:2]/5,4,1,{24}2/8,2/8,,3/7,,4/6,{12}4-8[12:1]/6h[12:1],5,3,1>5[12:1],1,1,{4}6,

{24}7>2[12:1],,5,5,,3,{12}3,4,5,{24}7<5[12:1],,8,8,,3,{12}3-7[12:1],4,4,,5,5,6-2[12:1],7,7,6>3[12:1]*<1[12:1],,5,
{4},{12}2<7[12:1],{24},4,{12}4,6,,4,2>4[12:1],{24},6,{12}6,7,8,8,7-2[12:1],{24},5,{12}5,3>4[4:1],4,5,{2}5,

{24}4/6,4/6,,3/7,{12},2h[6:1]/8,4,4,{24}3/5,3/5,,2/6,{12},1/7h[6:1],5,3,{8}1b/8b,2b/3b,4b/5b,6b/7b,{24}1/8,{12}1/8,B2/B3/B6/B7,{24}4x/5x,4x>1[12:1]/5x,4x/5x,{12},5,

4b<7[12:1],{24}5,5,{12}5,4qq1[4:1],1,3,5-8[12:1],8,6,5b>2[12:1],3,3,5<8[12:1],8,6,1pp4[4:1]/5,2,2,8,7,6,5<8[12:1],6,3,
5>2[12:1],{24}4,4,{12}4,5pp8[4:1],8,6,4-1[12:1],1,3,4b<7[12:1],6,6,4>1[12:1],3,3,4/5pp4[4:1],6,6,{2}1pp8[4:1],
{12}6-4[12:1],5,5,2-8[12:1],3,3,5p4[4:1],4,4,{4}6,{12},3/6,4/5,4>1[12:1]/5<8[12:1],3/6,3/6,{4}4-8[12:1]/5-1[12:1],4>5[4:1]/5<4[4:1],{2}4x/5x,

{12}1-4[12:1],1-6[12:1],{4}3/7,{12}5-2[12:1],5-8[12:1],{4}5-1[12:1],{12},8-5[12:1],8-3[12:1],{4}2/6,{12}4>8[6:1]*<8[6:1],2/6,2/6,,,,
{12}8-5[12:1],8-3[12:1],{4}2/6,{12}4-1[12:1],4-7[12:1],{4}4-8[12:1],{12},1-6[12:1],1-4[12:1],{4}3/7,{12}5-2[12:1],5-8[12:1],{4}5-1[12:1],{12},8>3[12:1],8<5[12:1],{4}8-4[12:1],,Ch[4:1],

{1},{8}B7/B8/E7/E8/C,B1/B2/E1/E2/E3,B3/B4/B5/B6/E4/E5/E6,Cf,{24}2x/7x,{12}2x/7x,3/6,{24}1/8,{12}1/8<5[12:1],4/5,2,

8b>3[12:1],{24}1,1,{12}1,8qq5[4:1],7,7,4-1[12:1],1,3,4b<7[12:1],6,6,4>1[12:1],{24}2,2,{12}2,4/5pp8[4:1],7,7,4,3,2,
1>4[12:1],2/7,2/7,1<6[12:1],{24}8,8,{12}8,1pp4[4:1],3,3,5-8[12:1],8,6,5b>2[12:1],3,3,5<8[12:1],{24}7,7,{12}7,1pp8[4:1]/5,2,2,{2}5pp4[4:1],
{24}2-8[12:1],,1,1,1,,6-4[12:1],,7,7,7,,1p8[4:1],,8,8,8,,{4}2,{12},2/7,1/8,1>4[12:1]/8<5[12:1],2/7,2/7,{4}1-5[12:1]/8-4[12:1],1>8[4:1]/8<1[4:1],{2}1x/8x,

{12}3qq4[12:2],{24}4,4,,6,{12}6,5,6,7pp5[12:2],{24}6,6,,3,{12}3,4,3,3pp2[12:2],{24}4,4,,6,{12}6<1[12:1],7,7,6-3[12:1],5,5,1,1,1,
6pp5[12:2],{24}5,5,,3,{12}3,4,3,2qq4[4:1],{24}4,4,,6,{12}6,5,6,6qq7[4:1],{24}5,5,,3,{12}3>8[12:1],2,2,3V51[4:1],6,6,8,7,6,3V51[4:1],1,1,8,7,6,5w1[1:1],4/6,2/8,{1}5b,E

Re:MASTER


  • 追加しました。シアミラ(2026/01/27 22:13:34)
名前:
コメント:

タグ:

+ タグ編集
  • タグ:
最終更新:2026年04月20日 16:19